  0
SECTION
  2
HEADER
  9
$ACADVER
  1
AC1015
  9
$ACADMAINTVER
 70
    20
  9
$DWGCODEPAGE
  3
ANSI_1252
  9
$INSBASE
 10
0.0
 20
0.0
 30
0.0
  9
$EXTMIN
 10
40.32989604437012
 20
92.44088825029427
 30
-0.0000000000112498
  9
$EXTMAX
 10
407.0031747908835
 20
257.3099676863173
 30
0.0000000000002956
  9
$LIMMIN
 10
0.0
 20
0.0
  9
$LIMMAX
 10
420.0
 20
297.0
  9
$ORTHOMODE
 70
     0
  9
$REGENMODE
 70
     1
  9
$FILLMODE
 70
     1
  9
$QTEXTMODE
 70
     0
  9
$MIRRTEXT
 70
     0
  9
$LTSCALE
 40
23.1
  9
$ATTMODE
 70
     1
  9
$TEXTSIZE
 40
0.2
  9
$TRACEWID
 40
0.05
  9
$TEXTSTYLE
  7
STANDARD
  9
$CLAYER
  8
0
  9
$CELTYPE
  6
BYLAYER
  9
$CECOLOR
 62
   256
  9
$CELTSCALE
 40
1.0
  9
$DISPSILH
 70
     0
  9
$DIMSCALE
 40
1.0
  9
$DIMASZ
 40
3.0
  9
$DIMEXO
 40
0.5
  9
$DIMDLI
 40
0.38
  9
$DIMRND
 40
0.0
  9
$DIMDLE
 40
0.0
  9
$DIMEXE
 40
1.6
  9
$DIMTP
 40
0.01
  9
$DIMTM
 40
0.01
  9
$DIMTXT
 40
2.799999999999998
  9
$DIMCEN
 40
0.09
  9
$DIMTSZ
 40
0.0
  9
$DIMTOL
 70
     1
  9
$DIMLIM
 70
     0
  9
$DIMTIH
 70
     0
  9
$DIMTOH
 70
     0
  9
$DIMSE1
 70
     0
  9
$DIMSE2
 70
     0
  9
$DIMTAD
 70
     1
  9
$DIMZIN
 70
     8
  9
$DIMBLK
  1
_FILLED
  9
$DIMASO
 70
     1
  9
$DIMSHO
 70
     1
  9
$DIMPOST
  1

  9
$DIMAPOST
  1

  9
$DIMALT
 70
     0
  9
$DIMALTD
 70
     2
  9
$DIMALTF
 40
25.4
  9
$DIMLFAC
 40
1.0
  9
$DIMTOFL
 70
     0
  9
$DIMTVP
 40
0.0
  9
$DIMTIX
 70
     0
  9
$DIMSOXD
 70
     0
  9
$DIMSAH
 70
     0
  9
$DIMBLK1
  1

  9
$DIMBLK2
  1

  9
$DIMSTYLE
  2
STANDARD
  9
$DIMCLRD
 70
     2
  9
$DIMCLRE
 70
     2
  9
$DIMCLRT
 70
     3
  9
$DIMTFAC
 40
1.0
  9
$DIMGAP
 40
0.625
  9
$DIMJUST
 70
     0
  9
$DIMSD1
 70
     0
  9
$DIMSD2
 70
     0
  9
$DIMTOLJ
 70
     1
  9
$DIMTZIN
 70
     8
  9
$DIMALTZ
 70
     0
  9
$DIMALTTZ
 70
     0
  9
$DIMUPT
 70
     0
  9
$DIMDEC
 70
     2
  9
$DIMTDEC
 70
     2
  9
$DIMALTU
 70
     2
  9
$DIMALTTD
 70
     2
  9
$DIMTXSTY
  7
STANDARD
  9
$DIMAUNIT
 70
     0
  9
$DIMADEC
 70
     0
  9
$DIMALTRND
 40
0.0
  9
$DIMAZIN
 70
     0
  9
$DIMDSEP
 70
    46
  9
$DIMATFIT
 70
     3
  9
$DIMFRAC
 70
     0
  9
$DIMLDRBLK
  1
_FILLED
  9
$DIMLUNIT
 70
     2
  9
$DIMLWD
 70
    -2
  9
$DIMLWE
 70
    -2
  9
$DIMTMOVE
 70
     0
  9
$LUNITS
 70
     2
  9
$LUPREC
 70
     4
  9
$SKETCHINC
 40
0.1
  9
$FILLETRAD
 40
0.0
  9
$AUNITS
 70
     0
  9
$AUPREC
 70
     0
  9
$MENU
  1
.
  9
$ELEVATION
 40
0.0
  9
$PELEVATION
 40
0.0
  9
$THICKNESS
 40
0.0
  9
$LIMCHECK
 70
     0
  9
$CHAMFERA
 40
0.0
  9
$CHAMFERB
 40
0.0
  9
$CHAMFERC
 40
0.0
  9
$CHAMFERD
 40
0.0
  9
$SKPOLY
 70
     0
  9
$TDCREATE
 40
2457087.396239595
  9
$TDUCREATE
 40
2457087.167072928
  9
$TDUPDATE
 40
2457667.609093588
  9
$TDUUPDATE
 40
2457667.379926922
  9
$TDINDWG
 40
0.0321257639
  9
$TDUSRTIMER
 40
0.0321255787
  9
$USRTIMER
 70
     1
  9
$ANGBASE
 50
0.0
  9
$ANGDIR
 70
     0
  9
$PDMODE
 70
    33
  9
$PDSIZE
 40
0.5
  9
$PLINEWID
 40
0.0
  9
$SPLFRAME
 70
     0
  9
$SPLINETYPE
 70
     6
  9
$SPLINESEGS
 70
     8
  9
$HANDSEED
  5
AC9
  9
$SURFTAB1
 70
     6
  9
$SURFTAB2
 70
     6
  9
$SURFTYPE
 70
     6
  9
$SURFU
 70
     6
  9
$SURFV
 70
     6
  9
$UCSBASE
  2

  9
$UCSNAME
  2

  9
$UCSORG
 10
0.0
 20
0.0
 30
0.0
  9
$UCSXDIR
 10
1.0
 20
0.0
 30
0.0
  9
$UCSYDIR
 10
0.0
 20
1.0
 30
0.0
  9
$UCSORTHOREF
  2

  9
$UCSORTHOVIEW
 70
     0
  9
$UCSORGTOP
 10
0.0
 20
0.0
 30
0.0
  9
$UCSORGBOTTOM
 10
0.0
 20
0.0
 30
0.0
  9
$UCSORGLEFT
 10
0.0
 20
0.0
 30
0.0
  9
$UCSORGRIGHT
 10
0.0
 20
0.0
 30
0.0
  9
$UCSORGFRONT
 10
0.0
 20
0.0
 30
0.0
  9
$UCSORGBACK
 10
0.0
 20
0.0
 30
0.0
  9
$PUCSBASE
  2

  9
$PUCSNAME
  2

  9
$PUCSORG
 10
0.0
 20
0.0
 30
0.0
  9
$PUCSXDIR
 10
1.0
 20
0.0
 30
0.0
  9
$PUCSYDIR
 10
0.0
 20
1.0
 30
0.0
  9
$PUCSORTHOREF
  2

  9
$PUCSORTHOVIEW
 70
     0
  9
$PUCSORGTOP
 10
0.0
 20
0.0
 30
0.0
  9
$PUCSORGBOTTOM
 10
0.0
 20
0.0
 30
0.0
  9
$PUCSORGLEFT
 10
0.0
 20
0.0
 30
0.0
  9
$PUCSORGRIGHT
 10
0.0
 20
0.0
 30
0.0
  9
$PUCSORGFRONT
 10
0.0
 20
0.0
 30
0.0
  9
$PUCSORGBACK
 10
0.0
 20
0.0
 30
0.0
  9
$USERI1
 70
     0
  9
$USERI2
 70
     0
  9
$USERI3
 70
     0
  9
$USERI4
 70
     0
  9
$USERI5
 70
     0
  9
$USERR1
 40
0.0
  9
$USERR2
 40
0.0
  9
$USERR3
 40
0.0
  9
$USERR4
 40
0.0
  9
$USERR5
 40
0.0
  9
$WORLDVIEW
 70
     1
  9
$SHADEDGE
 70
     3
  9
$SHADEDIF
 70
    70
  9
$TILEMODE
 70
     1
  9
$MAXACTVP
 70
    64
  9
$PINSBASE
 10
0.0
 20
0.0
 30
0.0
  9
$PLIMCHECK
 70
     0
  9
$PEXTMIN
 10
1.000000000000000E+20
 20
1.000000000000000E+20
 30
1.000000000000000E+20
  9
$PEXTMAX
 10
-1.000000000000000E+20
 20
-1.000000000000000E+20
 30
-1.000000000000000E+20
  9
$PLIMMIN
 10
0.0
 20
0.0
  9
$PLIMMAX
 10
12.0
 20
9.0
  9
$UNITMODE
 70
     0
  9
$VISRETAIN
 70
     1
  9
$PLINEGEN
 70
     0
  9
$PSLTSCALE
 70
     1
  9
$TREEDEPTH
 70
  3020
  9
$CMLSTYLE
  2
Standard
  9
$CMLJUST
 70
     0
  9
$CMLSCALE
 40
1.0
  9
$PROXYGRAPHICS
 70
     1
  9
$MEASUREMENT
 70
     1
  9
$CELWEIGHT
370
    -1
  9
$ENDCAPS
280
     0
  9
$JOINSTYLE
280
     0
  9
$LWDISPLAY
290
     0
  9
$INSUNITS
 70
     4
  9
$HYPERLINKBASE
  1

  9
$STYLESHEET
  1
SSG1.CTB
  9
$XEDIT
290
     1
  9
$CEPSNTYPE
380
     0
  9
$PSTYLEMODE
290
     1
  9
$FINGERPRINTGUID
  2
{1B8FBCAD-8E85-4C22-8796-5AB0824C6844}
  9
$VERSIONGUID
  2
{B7DAB405-1D2C-460A-B30E-E68BDFF8D3A7}
  9
$EXTNAMES
290
     1
  9
$PSVPSCALE
 40
0.0
  9
$OLESTARTUP
290
     0
  0
ENDSEC
  0
SECTION
  2
CLASSES
  0
CLASS
  1
ACDBDICTIONARYWDFLT
  2
AcDbDictionaryWithDefault
  3
ObjectDBX Classes
 90
        0
280
     0
281
     0
  0
CLASS
  1
ACDBPLACEHOLDER
  2
AcDbPlaceHolder
  3
ObjectDBX Classes
 90
        0
280
     0
281
     0
  0
CLASS
  1
LAYOUT
  2
AcDbLayout
  3
ObjectDBX Classes
 90
        0
280
     0
281
     0
  0
CLASS
  1
TABLESTYLE
  2
AcDbTableStyle
  3
ObjectDBX Classes
 90
     4095
280
     0
281
     0
  0
CLASS
  1
ACAD_TABLE
  2
AcDbTable
  3
ObjectDBX Classes
 90
    33793
280
     0
281
     1
  0
CLASS
  1
MATERIAL
  2
AcDbMaterial
  3
ObjectDBX Classes
 90
     1153
280
     0
281
     0
  0
CLASS
  1
VISUALSTYLE
  2
AcDbVisualStyle
  3
ObjectDBX Classes
 90
     4095
280
     0
281
     0
  0
CLASS
  1
SCALE
  2
AcDbScale
  3
ObjectDBX Classes
 90
     1153
280
     0
281
     0
  0
CLASS
  1
MLEADERSTYLE
  2
AcDbMLeaderStyle
  3
ACDB_MLEADERSTYLE_CLASS
 90
     4095
280
     0
281
     0
  0
CLASS
  1
DIMASSOC
  2
AcDbDimAssoc
  3
"AcDbDimAssoc|Product Desc:     AcDim ARX App For Dimension|Company:          Autodesk, Inc.|WEB Address:      www.autodesk.com"
 90
    32768
280
     0
281
     0
  0
CLASS
  1
CELLSTYLEMAP
  2
AcDbCellStyleMap
  3
ObjectDBX Classes
 90
     1152
280
     0
281
     0
  0
CLASS
  1
DICTIONARYVAR
  2
AcDbDictionaryVar
  3
ObjectDBX Classes
 90
        0
280
     0
281
     0
  0
CLASS
  1
BREAKDATA
  2
AcDbBreakData
  3
ObjectDBX Classes
 90
     1024
280
     0
281
     0
  0
CLASS
  1
SORTENTSTABLE
  2
AcDbSortentsTable
  3
ObjectDBX Classes
 90
        0
280
     0
281
     0
  0
ENDSEC
  0
SECTION
  2
TABLES
  0
TABLE
  2
VPORT
  5
8
330
0
100
AcDbSymbolTable
 70
     1
  0
VPORT
  5
1F4
330
8
100
AcDbSymbolTableRecord
100
AcDbViewportTableRecord
  2
*ACTIVE
 70
     0
 10
0.0
 20
0.0
 11
1.0
 21
1.0
 12
223.6665354176269
 22
174.8754279683058
 13
0.0
 23
0.0
 14
1.0
 24
1.0
 15
0.0
 25
0.0
 16
0.0
 26
0.0
 36
1.0
 17
0.0
 27
0.0
 37
0.0
 40
327.3991572833179
 41
1.126891734575087
 42
50.0
 43
0.0
 44
0.0
 50
0.0
 51
0.0
 71
     0
 72
   100
 73
     1
 74
     1
 75
     0
 76
     0
 77
     0
 78
     0
281
     0
 65
     1
110
0.0
120
0.0
130
0.0
111
1.0
121
0.0
131
0.0
112
0.0
122
1.0
132
0.0
 79
     0
146
0.0
  0
ENDTAB
  0
TABLE
  2
LTYPE
  5
5
330
0
100
AcDbSymbolTable
 70
     6
  0
LTYPE
  5
14
330
5
100
AcDbSymbolTableRecord
100
AcDbLinetypeTableRecord
  2
BYBLOCK
 70
     0
  3

 72
    65
 73
     0
 40
0.0
  0
LTYPE
  5
15
330
5
100
AcDbSymbolTableRecord
100
AcDbLinetypeTableRecord
  2
BYLAYER
 70
     0
  3

 72
    65
 73
     0
 40
0.0
  0
LTYPE
  5
16
330
5
100
AcDbSymbolTableRecord
100
AcDbLinetypeTableRecord
  2
CONTINUOUS
 70
     0
  3
Solid line
 72
    65
 73
     0
 40
0.0
  0
LTYPE
  5
1F5
330
5
100
AcDbSymbolTableRecord
100
AcDbLinetypeTableRecord
  2
CENTER
 70
     0
  3
____ _ ____ _ ____ _ ____ _ ____ _ ____ _ ____
 72
    65
 73
     4
 40
0.6
 49
0.375
 74
     0
 49
-0.075
 74
     0
 49
0.075
 74
     0
 49
-0.075
 74
     0
  0
LTYPE
  5
1F6
330
5
100
AcDbSymbolTableRecord
100
AcDbLinetypeTableRecord
  2
HIDDEN
 70
     0
  3
- - - - - - - - - - - - - - - - - - - -
 72
    65
 73
     2
 40
0.2
 49
0.1
 74
     0
 49
-0.1
 74
     0
  0
LTYPE
  5
1F7
330
5
100
AcDbSymbolTableRecord
100
AcDbLinetypeTableRecord
  2
PHANTOM
 70
     0
  3
_____ _ _ _____ _ _ _____ _ _ _____
 72
    65
 73
     6
 40
0.8
 49
0.45
 74
     0
 49
-0.05
 74
     0
 49
0.1
 74
     0
 49
-0.05
 74
     0
 49
0.1
 74
     0
 49
-0.05
 74
     0
  0
LTYPE
  5
1F8
330
5
100
AcDbSymbolTableRecord
100
AcDbLinetypeTableRecord
  2
DOT
 70
     0
  3
. . . . . . . . . . . . . . . . . . . .
 72
    65
 73
     2
 40
0.2
 49
0.1
 74
     0
 49
-0.1
 74
     0
  0
LTYPE
  5
1F9
330
5
100
AcDbSymbolTableRecord
100
AcDbLinetypeTableRecord
  2
DASHED
 70
     0
  3
- - - - - - - - - - - - - - - - - - - -
 72
    65
 73
     2
 40
0.2
 49
0.1
 74
     0
 49
-0.1
 74
     0
  0
ENDTAB
  0
TABLE
  2
LAYER
  5
2
330
0
100
AcDbSymbolTable
 70
    35
  0
LAYER
  5
10
102
{ACAD_XDICTIONARY
360
8DF
102
}
330
2
100
AcDbSymbolTableRecord
100
AcDbLayerTableRecord
  2
0
 70
     0
 62
     7
  6
CONTINUOUS
370
    -3
390
F
  0
LAYER
  5
1FA
102
{ACAD_XDICTIONARY
360
8E1
102
}
330
2
100
AcDbSymbolTableRecord
100
AcDbLayerTableRecord
  2
DEFAULT_1
 70
     0
 62
     7
  6
CENTER
370
    -3
390
F
  0
LAYER
  5
1FB
102
{ACAD_XDICTIONARY
360
8E3
102
}
330
2
100
AcDbSymbolTableRecord
100
AcDbLayerTableRecord
  2
DEFAULT_2
 70
     0
 62
     8
  6
HIDDEN
370
    -3
390
F
  0
LAYER
  5
1FC
102
{ACAD_XDICTIONARY
360
8E5
102
}
330
2
100
AcDbSymbolTableRecord
100
AcDbLayerTableRecord
  2
DEFAULT_3
 70
     0
 62
     7
  6
PHANTOM
370
    -3
390
F
  0
LAYER
  5
1FD
102
{ACAD_XDICTIONARY
360
8E7
102
}
330
2
100
AcDbSymbolTableRecord
100
AcDbLayerTableRecord
  2
01_ALL_DTM_PLN
 70
     0
 62
     7
  6
CONTINUOUS
370
    -3
390
F
  0
LAYER
  5
1FE
102
{ACAD_XDICTIONARY
360
8E9
102
}
330
2
100
AcDbSymbolTableRecord
100
AcDbLayerTableRecord
  2
01__ASM_ALL_DTM_PLN
 70
     0
 62
     7
  6
CONTINUOUS
370
    -3
390
F
  0
LAYER
  5
1FF
102
{ACAD_XDICTIONARY
360
8EB
102
}
330
2
100
AcDbSymbolTableRecord
100
AcDbLayerTableRecord
  2
01__ASM_DEF_DTM_PLN
 70
     0
 62
     7
  6
CONTINUOUS
370
    -3
390
F
  0
LAYER
  5
200
102
{ACAD_XDICTIONARY
360
8ED
102
}
330
2
100
AcDbSymbolTableRecord
100
AcDbLayerTableRecord
  2
01___PRT_ALL_DTM_PLN
 70
     0
 62
     7
  6
CONTINUOUS
370
    -3
390
F
  0
LAYER
  5
201
102
{ACAD_XDICTIONARY
360
8EF
102
}
330
2
100
AcDbSymbolTableRecord
100
AcDbLayerTableRecord
  2
01___PRT_DEF_DTM_PLN
 70
     0
 62
     7
  6
CONTINUOUS
370
    -3
390
F
  0
LAYER
  5
202
102
{ACAD_XDICTIONARY
360
8F1
102
}
330
2
100
AcDbSymbolTableRecord
100
AcDbLayerTableRecord
  2
02_ALL_AXES
 70
     0
 62
     7
  6
CONTINUOUS
370
    -3
390
F
  0
LAYER
  5
203
102
{ACAD_XDICTIONARY
360
8F3
102
}
330
2
100
AcDbSymbolTableRecord
100
AcDbLayerTableRecord
  2
02_AXES
 70
     0
 62
     7
  6
CONTINUOUS
370
    -3
390
F
  0
LAYER
  5
204
102
{ACAD_XDICTIONARY
360
8F5
102
}
330
2
100
AcDbSymbolTableRecord
100
AcDbLayerTableRecord
  2
02__ASM_ALL_AXES
 70
     0
 62
     7
  6
CONTINUOUS
370
    -3
390
F
  0
LAYER
  5
205
102
{ACAD_XDICTIONARY
360
8F7
102
}
330
2
100
AcDbSymbolTableRecord
100
AcDbLayerTableRecord
  2
02___PRT_ALL_AXES
 70
     0
 62
     7
  6
CONTINUOUS
370
    -3
390
F
  0
LAYER
  5
206
102
{ACAD_XDICTIONARY
360
8F9
102
}
330
2
100
AcDbSymbolTableRecord
100
AcDbLayerTableRecord
  2
03_ALL_CURVES
 70
     0
 62
     7
  6
CONTINUOUS
370
    -3
390
F
  0
LAYER
  5
207
102
{ACAD_XDICTIONARY
360
8FB
102
}
330
2
100
AcDbSymbolTableRecord
100
AcDbLayerTableRecord
  2
03__ASM_ALL_CURVES
 70
     0
 62
     7
  6
CONTINUOUS
370
    -3
390
F
  0
LAYER
  5
208
102
{ACAD_XDICTIONARY
360
8FD
102
}
330
2
100
AcDbSymbolTableRecord
100
AcDbLayerTableRecord
  2
03___PRT_ALL_CURVES
 70
     0
 62
     7
  6
CONTINUOUS
370
    -3
390
F
  0
LAYER
  5
209
102
{ACAD_XDICTIONARY
360
8FF
102
}
330
2
100
AcDbSymbolTableRecord
100
AcDbLayerTableRecord
  2
04_ALL_DTM_PNT
 70
     0
 62
     7
  6
CONTINUOUS
370
    -3
390
F
  0
LAYER
  5
20A
102
{ACAD_XDICTIONARY
360
901
102
}
330
2
100
AcDbSymbolTableRecord
100
AcDbLayerTableRecord
  2
04__ASM_ALL_DTM_PNT
 70
     0
 62
     7
  6
CONTINUOUS
370
    -3
390
F
  0
LAYER
  5
20B
102
{ACAD_XDICTIONARY
360
903
102
}
330
2
100
AcDbSymbolTableRecord
100
AcDbLayerTableRecord
  2
04___PRT_ALL_DTM_PNT
 70
     0
 62
     7
  6
CONTINUOUS
370
    -3
390
F
  0
LAYER
  5
20C
102
{ACAD_XDICTIONARY
360
905
102
}
330
2
100
AcDbSymbolTableRecord
100
AcDbLayerTableRecord
  2
05_ALL_DTM_CSYS
 70
     0
 62
     7
  6
CONTINUOUS
370
    -3
390
F
  0
LAYER
  5
20D
102
{ACAD_XDICTIONARY
360
907
102
}
330
2
100
AcDbSymbolTableRecord
100
AcDbLayerTableRecord
  2
05__ASM_ALL_DTM_CSYS
 70
     0
 62
     7
  6
CONTINUOUS
370
    -3
390
F
  0
LAYER
  5
20E
102
{ACAD_XDICTIONARY
360
909
102
}
330
2
100
AcDbSymbolTableRecord
100
AcDbLayerTableRecord
  2
05__ASM_DEF_DTM_CSYS
 70
     0
 62
     7
  6
CONTINUOUS
370
    -3
390
F
  0
LAYER
  5
20F
102
{ACAD_XDICTIONARY
360
90B
102
}
330
2
100
AcDbSymbolTableRecord
100
AcDbLayerTableRecord
  2
05___PRT_ALL_DTM_CSYS
 70
     0
 62
     7
  6
CONTINUOUS
370
    -3
390
F
  0
LAYER
  5
210
102
{ACAD_XDICTIONARY
360
90D
102
}
330
2
100
AcDbSymbolTableRecord
100
AcDbLayerTableRecord
  2
05___PRT_DEF_DTM_CSYS
 70
     0
 62
     7
  6
CONTINUOUS
370
    -3
390
F
  0
LAYER
  5
211
102
{ACAD_XDICTIONARY
360
90F
102
}
330
2
100
AcDbSymbolTableRecord
100
AcDbLayerTableRecord
  2
06_ALL_SURFS
 70
     0
 62
     7
  6
CONTINUOUS
370
    -3
390
F
  0
LAYER
  5
212
102
{ACAD_XDICTIONARY
360
911
102
}
330
2
100
AcDbSymbolTableRecord
100
AcDbLayerTableRecord
  2
06__ASM_ALL_SURFS
 70
     0
 62
     7
  6
CONTINUOUS
370
    -3
390
F
  0
LAYER
  5
213
102
{ACAD_XDICTIONARY
360
913
102
}
330
2
100
AcDbSymbolTableRecord
100
AcDbLayerTableRecord
  2
06___PRT_ALL_SURFS
 70
     0
 62
     7
  6
CONTINUOUS
370
    -3
390
F
  0
LAYER
  5
214
102
{ACAD_XDICTIONARY
360
915
102
}
330
2
100
AcDbSymbolTableRecord
100
AcDbLayerTableRecord
  2
07__ASM_ALL_SKELETONS
 70
     0
 62
     7
  6
CONTINUOUS
370
    -3
390
F
  0
LAYER
  5
215
102
{ACAD_XDICTIONARY
360
917
102
}
330
2
100
AcDbSymbolTableRecord
100
AcDbLayerTableRecord
  2
1_ALL_PLANES
 70
     0
 62
     7
  6
CONTINUOUS
370
    -3
390
F
  0
LAYER
  5
216
102
{ACAD_XDICTIONARY
360
919
102
}
330
2
100
AcDbSymbolTableRecord
100
AcDbLayerTableRecord
  2
1__DEF_PLANES
 70
     0
 62
     7
  6
CONTINUOUS
370
    -3
390
F
  0
LAYER
  5
217
102
{ACAD_XDICTIONARY
360
91B
102
}
330
2
100
AcDbSymbolTableRecord
100
AcDbLayerTableRecord
  2
2_ALL_CSYS
 70
     0
 62
     7
  6
CONTINUOUS
370
    -3
390
F
  0
LAYER
  5
218
102
{ACAD_XDICTIONARY
360
91D
102
}
330
2
100
AcDbSymbolTableRecord
100
AcDbLayerTableRecord
  2
2__DEF_CSYS
 70
     0
 62
     7
  6
CONTINUOUS
370
    -3
390
F
  0
LAYER
  5
219
102
{ACAD_XDICTIONARY
360
91F
102
}
330
2
100
AcDbSymbolTableRecord
100
AcDbLayerTableRecord
  2
SET_DATUM
 70
     0
 62
     7
  6
CONTINUOUS
370
    -3
390
F
  0
LAYER
  5
21A
102
{ACAD_XDICTIONARY
360
921
102
}
330
2
100
AcDbSymbolTableRecord
100
AcDbLayerTableRecord
  2
XSEC_DATUMS
 70
     0
 62
     7
  6
CONTINUOUS
370
    -3
390
F
  0
LAYER
  5
815
330
2
100
AcDbSymbolTableRecord
100
AcDbLayerTableRecord
  2
Defpoints
 70
     0
 62
     7
  6
CONTINUOUS
290
     0
370
    -3
390
F
  0
ENDTAB
  0
TABLE
  2
STYLE
  5
3
330
0
100
AcDbSymbolTable
 70
     4
  0
STYLE
  5
11
330
3
100
AcDbSymbolTableRecord
100
AcDbTextStyleTableRecord
  2
STANDARD
 70
     0
 40
0.0
 41
1.0
 50
0.0
 71
     0
 42
0.2
  3
isocpeur.ttf
  4

1001
ACAD
1000
ISOCPEUR
1071
       34
  0
STYLE
  5
21B
330
3
100
AcDbSymbolTableRecord
100
AcDbTextStyleTableRecord
  2
TEXTSTYLE_1
 70
     0
 40
0.0
 41
0.8
 50
0.0
 71
     0
 42
0.2
  3
gdt
  4

  0
STYLE
  5
21C
330
3
100
AcDbSymbolTableRecord
100
AcDbTextStyleTableRecord
  2
TEXTSTYLE_2
 70
     0
 40
0.0
 41
0.8
 50
0.0
 71
     0
 42
0.2
  3
txt
  4

  0
STYLE
  5
21D
330
3
100
AcDbSymbolTableRecord
100
AcDbTextStyleTableRecord
  2
TEXTSTYLE_3
 70
     0
 40
0.0
 41
1.0
 50
0.0
 71
     0
 42
0.2
  3
triumb.ttf
  4

  0
ENDTAB
  0
TABLE
  2
VIEW
  5
6
330
0
100
AcDbSymbolTable
 70
     0
  0
ENDTAB
  0
TABLE
  2
UCS
  5
7
330
0
100
AcDbSymbolTable
 70
     0
  0
ENDTAB
  0
TABLE
  2
APPID
  5
9
330
0
100
AcDbSymbolTable
 70
     6
  0
APPID
  5
21E
330
9
100
AcDbSymbolTableRecord
100
AcDbRegAppTableRecord
  2
ACAD
 70
     0
  0
APPID
  5
809
330
9
100
AcDbSymbolTableRecord
100
AcDbRegAppTableRecord
  2
ACAD_MLEADERVER
 70
     0
  0
APPID
  5
812
330
9
100
AcDbSymbolTableRecord
100
AcDbRegAppTableRecord
  2
AcadAnnoPO
 70
     0
  0
APPID
  5
838
330
9
100
AcDbSymbolTableRecord
100
AcDbRegAppTableRecord
  2
ACAD_DSTYLE_DIMJAG
 70
     0
  0
APPID
  5
839
330
9
100
AcDbSymbolTableRecord
100
AcDbRegAppTableRecord
  2
ACAD_DSTYLE_DIMTALN
 70
     0
  0
APPID
  5
997
330
9
100
AcDbSymbolTableRecord
100
AcDbRegAppTableRecord
  2
ACAD_DSTYLE_DIMFLIPARROW_WHICH_SYMBOL
 70
     0
  0
ENDTAB
  0
TABLE
  2
DIMSTYLE
  5
A
330
0
100
AcDbSymbolTable
 70
    11
100
AcDbDimStyleTable
 71
     6
340
23D
340
247
340
246
340
245
340
244
340
243
  0
DIMSTYLE
105
23D
330
A
100
AcDbSymbolTableRecord
100
AcDbDimStyleTableRecord
  2
STANDARD
 70
     0
 41
3.0
 42
0.5
 44
1.6
 47
0.01
 48
0.01
 71
     1
 73
     0
 74
     0
 77
     1
 78
     8
140
2.799999999999998
147
0.625
176
     2
177
     2
178
     3
271
     2
272
     2
284
     8
340
11
341
221
342
221
1001
ACAD_DSTYLE_DIMJAG
1070
   388
1040
1.5
1001
ACAD_DSTYLE_DIMTALN
1070
   392
1070
     0
  0
DIMSTYLE
105
23E
102
{ACAD_REACTORS
330
37D
330
380
102
}
330
A
100
AcDbSymbolTableRecord
100
AcDbDimStyleTableRecord
  2
DIMSTYLE_1
 70
     0
 41
3.0
 42
0.5
 44
1.6
 47
0.3
 48
0.3
 73
     0
 74
     0
 77
     1
 78
     8
140
2.799999999999998
147
0.7
176
     2
177
     2
178
     3
271
     2
272
     2
284
     8
340
11
341
221
342
221
1001
ACAD_DSTYLE_DIMJAG
1070
   388
1040
1.5
1001
ACAD_DSTYLE_DIMTALN
1070
   392
1070
     0
  0
DIMSTYLE
105
23F
102
{ACAD_REACTORS
330
37E
330
37F
102
}
330
A
100
AcDbSymbolTableRecord
100
AcDbDimStyleTableRecord
  2
DIMSTYLE_2
 70
     0
 41
3.0
 42
0.5
 44
1.6
 47
0.2
 48
0.2
 73
     0
 74
     0
 77
     1
 78
     8
140
2.799999999999998
147
0.7
176
     2
177
     2
178
     3
271
     2
272
     2
284
     8
340
11
341
221
342
221
1001
ACAD_DSTYLE_DIMJAG
1070
   388
1040
1.5
1001
ACAD_DSTYLE_DIMTALN
1070
   392
1070
     0
  0
DIMSTYLE
105
240
102
{ACAD_REACTORS
330
381
102
}
330
A
100
AcDbSymbolTableRecord
100
AcDbDimStyleTableRecord
  2
DIMSTYLE_3
 70
     0
 41
3.0
 42
0.5
 44
1.6
 47
15.0
 48
15.0
 71
     1
 73
     0
 74
     0
 77
     1
 78
     8
140
2.799999999999998
147
0.7
176
     2
177
     2
178
     3
271
     2
272
     2
284
     8
340
11
341
221
342
221
1001
ACAD_DSTYLE_DIMJAG
1070
   388
1040
1.5
1001
ACAD_DSTYLE_DIMTALN
1070
   392
1070
     0
  0
DIMSTYLE
105
241
102
{ACAD_REACTORS
330
382
102
}
330
A
100
AcDbSymbolTableRecord
100
AcDbDimStyleTableRecord
  2
DIMSTYLE_4
 70
     0
 41
3.0
 42
0.5
 44
1.6
 47
-0.01
 48
0.014
 71
     1
 73
     0
 74
     0
 77
     1
 78
     8
140
2.799999999999998
146
0.75
147
0.7
176
     2
177
     2
178
     3
271
     3
272
     3
284
     8
340
11
341
221
342
221
1001
ACAD_DSTYLE_DIMJAG
1070
   388
1040
1.5
1001
ACAD_DSTYLE_DIMTALN
1070
   392
1070
     0
  0
DIMSTYLE
105
242
102
{ACAD_REACTORS
330
383
102
}
330
A
100
AcDbSymbolTableRecord
100
AcDbDimStyleTableRecord
  2
DIMSTYLE_5
 70
     0
 41
3.0
 42
0.5
 44
1.6
 47
0.5
 48
0.5
 71
     1
 73
     0
 74
     0
 77
     1
 78
     8
140
2.799999999999998
147
0.7
176
     2
177
     2
178
     3
271
     2
272
     2
284
     8
340
11
341
221
342
221
1001
ACAD_DSTYLE_DIMJAG
1070
   388
1040
1.5
1001
ACAD_DSTYLE_DIMTALN
1070
   392
1070
     0
  0
DIMSTYLE
105
243
330
A
100
AcDbSymbolTableRecord
100
AcDbDimStyleTableRecord
  2
DIMSTYLE_6
 70
     0
  3
<>
 41
3.0
 42
0.5
 44
1.6
 48
0.1
 71
     1
 73
     0
 74
     0
 77
     1
 78
     8
140
2.799999999999998
146
0.75
147
0.625
172
     1
176
     2
177
     2
178
     3
271
     2
272
     2
284
     8
288
     1
289
     2
340
11
341
221
342
221
1001
ACAD_DSTYLE_DIMJAG
1070
   388
1040
1.5
1001
ACAD_DSTYLE_DIMTALN
1070
   392
1070
     0
  0
DIMSTYLE
105
244
330
A
100
AcDbSymbolTableRecord
100
AcDbDimStyleTableRecord
  2
DIMSTYLE_7
 70
     0
  3
<>
 41
3.0
 42
0.5
 44
1.6
 47
0.1
 48
0.1
 73
     0
 74
     0
 77
     1
 78
     8
140
2.799999999999998
147
0.625
172
     1
176
     2
177
     2
178
     3
271
     3
272
     3
284
     8
288
     1
289
     2
340
11
341
221
342
221
1001
ACAD_DSTYLE_DIMJAG
1070
   388
1040
1.5
1001
ACAD_DSTYLE_DIMTALN
1070
   392
1070
     0
  0
DIMSTYLE
105
245
102
{ACAD_REACTORS
330
386
102
}
330
A
100
AcDbSymbolTableRecord
100
AcDbDimStyleTableRecord
  2
DIMSTYLE_8
 70
     0
  3
<>
 41
3.0
 42
0.5
 44
1.6
 47
0.05
 48
0.05
 71
     1
 73
     0
 74
     0
 77
     1
 78
     8
140
2.799999999999998
147
0.625
172
     1
176
     2
177
     2
178
     3
271
     2
272
     2
284
     8
288
     1
289
     2
340
11
341
221
342
221
1001
ACAD_DSTYLE_DIMJAG
1070
   388
1040
1.5
1001
ACAD_DSTYLE_DIMTALN
1070
   392
1070
     0
  0
DIMSTYLE
105
246
102
{ACAD_REACTORS
330
387
102
}
330
A
100
AcDbSymbolTableRecord
100
AcDbDimStyleTableRecord
  2
DIMSTYLE_9
 70
     0
 41
3.0
 42
0.5
 44
1.6
 47
0.2
 71
     1
 73
     0
 74
     0
 77
     1
 78
     8
140
2.799999999999998
146
0.75
147
0.7
176
     2
177
     2
178
     3
271
     2
272
     2
284
     8
340
11
341
221
342
221
1001
ACAD_DSTYLE_DIMJAG
1070
   388
1040
1.5
1001
ACAD_DSTYLE_DIMTALN
1070
   392
1070
     0
  0
DIMSTYLE
105
247
102
{ACAD_REACTORS
330
388
102
}
330
A
100
AcDbSymbolTableRecord
100
AcDbDimStyleTableRecord
  2
DIMSTYLE_10
 70
     0
 41
3.0
 42
0.5
 44
1.6
 47
0.016
 71
     1
 73
     0
 74
     0
 77
     1
 78
     8
140
2.799999999999998
146
0.75
147
0.7
176
     2
177
     2
178
     3
271
     3
272
     3
284
     8
340
11
341
221
342
221
1001
ACAD_DSTYLE_DIMJAG
1070
   388
1040
1.5
1001
ACAD_DSTYLE_DIMTALN
1070
   392
1070
     0
  0
ENDTAB
  0
TABLE
  2
BLOCK_RECORD
  5
1
330
0
100
AcDbSymbolTable
 70
    29
  0
BLOCK_RECORD
  5
21F
102
{ACAD_XDICTIONARY
360
9F2
102
}
330
1
100
AcDbSymbolTableRecord
100
AcDbBlockTableRecord
  2
*Model_Space
340
7B2
  0
BLOCK_RECORD
  5
220
330
1
100
AcDbSymbolTableRecord
100
AcDbBlockTableRecord
  2
*Paper_Space
340
7B3
  0
BLOCK_RECORD
  5
221
330
1
100
AcDbSymbolTableRecord
100
AcDbBlockTableRecord
  2
_FILLED
340
0
102
{BLKREFS
331
828
331
829
331
891
331
892
331
8BD
331
8BE
331
93F
331
940
331
948
331
949
331
950
331
951
331
959
331
95A
331
981
331
982
331
9B5
331
9B6
331
9F0
331
A0A
331
A0B
331
A16
331
A17
331
A50
331
A51
331
A59
331
A5A
331
A91
102
}
  0
BLOCK_RECORD
  5
222
330
1
100
AcDbSymbolTableRecord
100
AcDbBlockTableRecord
  2
*D1
340
0
  0
BLOCK_RECORD
  5
223
330
1
100
AcDbSymbolTableRecord
100
AcDbBlockTableRecord
  2
*D2
340
0
  0
BLOCK_RECORD
  5
224
330
1
100
AcDbSymbolTableRecord
100
AcDbBlockTableRecord
  2
*D3
340
0
  0
BLOCK_RECORD
  5
225
330
1
100
AcDbSymbolTableRecord
100
AcDbBlockTableRecord
  2
*D4
340
0
  0
BLOCK_RECORD
  5
226
330
1
100
AcDbSymbolTableRecord
100
AcDbBlockTableRecord
  2
*D5
340
0
  0
BLOCK_RECORD
  5
227
330
1
100
AcDbSymbolTableRecord
100
AcDbBlockTableRecord
  2
*D6
340
0
  0
BLOCK_RECORD
  5
228
330
1
100
AcDbSymbolTableRecord
100
AcDbBlockTableRecord
  2
*D7
340
0
  0
BLOCK_RECORD
  5
229
330
1
100
AcDbSymbolTableRecord
100
AcDbBlockTableRecord
  2
*D8
340
0
  0
BLOCK_RECORD
  5
22A
330
1
100
AcDbSymbolTableRecord
100
AcDbBlockTableRecord
  2
*D9
340
0
  0
BLOCK_RECORD
  5
22B
330
1
100
AcDbSymbolTableRecord
100
AcDbBlockTableRecord
  2
*D10
340
0
  0
BLOCK_RECORD
  5
22C
330
1
100
AcDbSymbolTableRecord
100
AcDbBlockTableRecord
  2
*D11
340
0
  0
BLOCK_RECORD
  5
22D
330
1
100
AcDbSymbolTableRecord
100
AcDbBlockTableRecord
  2
*D12
340
0
  0
BLOCK_RECORD
  5
22E
330
1
100
AcDbSymbolTableRecord
100
AcDbBlockTableRecord
  2
FIRST_ANGLE_BL0
340
0
  0
BLOCK_RECORD
  5
22F
330
1
100
AcDbSymbolTableRecord
100
AcDbBlockTableRecord
  2
*T14
340
0
  0
BLOCK_RECORD
  5
230
330
1
100
AcDbSymbolTableRecord
100
AcDbBlockTableRecord
  2
*T15
340
0
  0
BLOCK_RECORD
  5
231
330
1
100
AcDbSymbolTableRecord
100
AcDbBlockTableRecord
  2
*T16
340
0
  0
BLOCK_RECORD
  5
232
330
1
100
AcDbSymbolTableRecord
100
AcDbBlockTableRecord
  2
*T17
340
0
  0
BLOCK_RECORD
  5
233
330
1
100
AcDbSymbolTableRecord
100
AcDbBlockTableRecord
  2
*T18
340
0
  0
BLOCK_RECORD
  5
234
330
1
100
AcDbSymbolTableRecord
100
AcDbBlockTableRecord
  2
*T19
340
0
  0
BLOCK_RECORD
  5
235
330
1
100
AcDbSymbolTableRecord
100
AcDbBlockTableRecord
  2
*T20
340
0
  0
BLOCK_RECORD
  5
236
330
1
100
AcDbSymbolTableRecord
100
AcDbBlockTableRecord
  2
*T21
340
0
  0
BLOCK_RECORD
  5
237
330
1
100
AcDbSymbolTableRecord
100
AcDbBlockTableRecord
  2
*T22
340
0
  0
BLOCK_RECORD
  5
238
330
1
100
AcDbSymbolTableRecord
100
AcDbBlockTableRecord
  2
*T23
340
0
  0
BLOCK_RECORD
  5
239
330
1
100
AcDbSymbolTableRecord
100
AcDbBlockTableRecord
  2
*T24
340
0
  0
BLOCK_RECORD
  5
23A
330
1
100
AcDbSymbolTableRecord
100
AcDbBlockTableRecord
  2
*T25
340
0
  0
BLOCK_RECORD
  5
23B
330
1
100
AcDbSymbolTableRecord
100
AcDbBlockTableRecord
  2
*T26
340
0
  0
BLOCK_RECORD
  5
23C
330
1
100
AcDbSymbolTableRecord
100
AcDbBlockTableRecord
  2
*T27
340
0
  0
BLOCK_RECORD
  5
816
330
1
100
AcDbSymbolTableRecord
100
AcDbBlockTableRecord
  2
*D28
340
0
  0
ENDTAB
  0
ENDSEC
  0
SECTION
  2
BLOCKS
  0
BLOCK
  5
20
330
21F
100
AcDbEntity
  8
0
100
AcDbBlockBegin
  2
*Model_Space
 70
     0
 10
0.0
 20
0.0
 30
0.0
  3
*Model_Space
  1

  0
ENDBLK
  5
21
330
21F
100
AcDbEntity
  8
0
100
AcDbBlockEnd
  0
BLOCK
  5
1C
330
220
100
AcDbEntity
 67
     1
  8
0
100
AcDbBlockBegin
  2
*Paper_Space
 70
     0
 10
0.0
 20
0.0
 30
0.0
  3
*Paper_Space
  1

  0
ENDBLK
  5
1D
330
220
100
AcDbEntity
 67
     1
  8
0
100
AcDbBlockEnd
  0
BLOCK
  5
253
330
221
100
AcDbEntity
  8
0
100
AcDbBlockBegin
  2
_FILLED
 70
     0
 10
0.0
 20
0.0
 30
0.0
  3
_FILLED
  1

  0
SOLID
  5
254
330
221
100
AcDbEntity
  8
0
  6
ByBlock
 62
     0
100
AcDbTrace
 10
0.0
 20
0.0
 30
0.0
 11
-1.0
 21
0.1666666667
 31
0.0
 12
-1.0
 22
-0.1666666667
 32
0.0
 13
-1.0
 23
-0.1666666667
 33
0.0
  0
ENDBLK
  5
255
330
221
100
AcDbEntity
  8
0
  6
ByBlock
 62
     0
100
AcDbBlockEnd
  0
BLOCK
  5
256
330
222
100
AcDbEntity
  8
0
  6
Continuous
 62
     2
100
AcDbBlockBegin
  2
*D1
 70
     1
 10
0.0
 20
0.0
 30
0.0
  3
*D1
  1

  0
LINE
  5
A4D
330
222
100
AcDbEntity
  8
0
  6
Continuous
 62
     2
370
    -2
100
AcDbLine
 10
358.1935639089
 20
161.8534451146
 30
0.0
 11
390.9882126695001
 21
161.8534451146
 31
0.0
  0
LINE
  5
A4E
330
222
100
AcDbEntity
  8
0
  6
Continuous
 62
     2
370
    -2
100
AcDbLine
 10
345.1935639089
 20
203.0534451146
 30
0.0
 11
390.9882126695001
 21
203.0534451146
 31
0.0
  0
LINE
  5
A4F
330
222
100
AcDbEntity
  8
0
  6
Continuous
 62
     2
370
    -2
100
AcDbLine
 10
389.3882126695
 20
164.8534451146
 30
0.0
 11
389.3882126695
 21
200.0534451146
 31
0.0
  0
INSERT
  5
A50
330
222
100
AcDbEntity
  8
0
  6
Continuous
 62
     2
370
    -2
100
AcDbBlockReference
  2
_FILLED
 10
389.3882126695
 20
161.8534451146
 30
0.0
 41
3.0
 42
3.0
 43
3.0
 50
270.0
  0
INSERT
  5
A51
330
222
100
AcDbEntity
  8
0
  6
Continuous
 62
     2
370
    -2
100
AcDbBlockReference
  2
_FILLED
 10
389.3882126695
 20
203.0534451146
 30
0.0
 41
3.0
 42
3.0
 43
3.0
 50
90.0
  0
MTEXT
  5
A52
330
222
100
AcDbEntity
  8
0
  6
Continuous
 62
     3
100
AcDbMText
 10
385.8860914573788
 20
182.053445946
 30
0.0
 40
2.799999999999998
 41
0.0
 71
     2
 72
     1
  1
\A1;41.2 max.
 11
0.0000000000000001
 21
1.0
 31
0.0
 73
     1
 44
1.0
1001
ACAD
1000
MTEXTBEGIN
1070
    73
1070
     1
1070
    44
1040
1.0
1070
    74
1070
     0
1000
MTEXTEND
  0
POINT
  5
A53
330
222
100
AcDbEntity
  8
Defpoints
  6
Continuous
 62
     0
100
AcDbPoint
 10
357.6935639089
 20
161.8534451146
 30
0.0
  0
POINT
  5
A54
330
222
100
AcDbEntity
  8
Defpoints
  6
Continuous
 62
     0
100
AcDbPoint
 10
344.6935639089
 20
203.0534451146
 30
0.0
  0
POINT
  5
A55
330
222
100
AcDbEntity
  8
Defpoints
  6
Continuous
 62
     0
100
AcDbPoint
 10
389.3882126695
 20
203.0534451146
 30
0.0
  0
ENDBLK
  5
25E
330
222
100
AcDbEntity
  8
0
  6
ByBlock
 62
     0
100
AcDbBlockEnd
  0
BLOCK
  5
25F
330
223
100
AcDbEntity
  8
0
  6
Continuous
 62
     2
100
AcDbBlockBegin
  2
*D2
 70
     1
 10
0.0
 20
0.0
 30
0.0
  3
*D2
  1

  0
LINE
  5
A06
330
223
100
AcDbEntity
  8
0
  6
Continuous
 62
     2
370
    -2
100
AcDbLine
 10
329.6935639089
 20
163.3534451146
 30
0.0
 11
329.6935639089
 21
143.0276609722
 31
0.0
  0
LINE
  5
A07
330
223
100
AcDbEntity
  8
0
  6
Continuous
 62
     2
370
    -2
100
AcDbLine
 10
359.6935639089
 20
163.3534451146
 30
0.0
 11
359.6935639089
 21
143.0276609722
 31
0.0
  0
LINE
  5
A08
330
223
100
AcDbEntity
  8
0
  6
Continuous
 62
     2
370
    -2
100
AcDbLine
 10
332.6935639089
 20
144.6276609722
 30
0.0
 11
356.6935639089
 21
144.6276609722
 31
0.0
  0
LINE
  5
A09
330
223
100
AcDbEntity
  8
0
  6
Continuous
 62
     2
370
    -2
100
AcDbLine
 10
359.6935639089
 20
144.6276609722
 30
0.0
 11
369.6935639089
 21
144.6276609722
 31
0.0
  0
INSERT
  5
A0A
330
223
100
AcDbEntity
  8
0
  6
Continuous
 62
     2
370
    -2
100
AcDbBlockReference
  2
_FILLED
 10
329.6935639089
 20
144.6276609722
 30
0.0
 41
3.0
 42
3.0
 43
3.0
 50
180.0
  0
INSERT
  5
A0B
330
223
100
AcDbEntity
  8
0
  6
Continuous
 62
     2
370
    -2
100
AcDbBlockReference
  2
_FILLED
 10
359.6935639089
 20
144.6276609722
 30
0.0
 41
3.0
 42
3.0
 43
3.0
  0
MTEXT
  5
A0C
330
223
100
AcDbEntity
  8
0
  6
Continuous
 62
     3
100
AcDbMText
 10
366.1935639089
 20
147.0076609722
 30
0.0
 40
2.799999999999998
 41
0.0
 71
     5
 72
     1
  1
\A1;(30)
 73
     1
 44
1.0
1001
ACAD
1000
MTEXTBEGIN
1070
    73
1070
     1
1070
    44
1040
1.0
1070
    74
1070
     0
1000
MTEXTEND
  0
POINT
  5
A0D
330
223
100
AcDbEntity
  8
Defpoints
  6
Continuous
 62
     0
100
AcDbPoint
 10
329.6935639089
 20
163.8534451146
 30
0.0
  0
POINT
  5
A0E
330
223
100
AcDbEntity
  8
Defpoints
  6
Continuous
 62
     0
100
AcDbPoint
 10
359.6935639089
 20
163.8534451146
 30
0.0
  0
POINT
  5
A0F
330
223
100
AcDbEntity
  8
Defpoints
  6
Continuous
 62
     0
100
AcDbPoint
 10
359.6935639089
 20
144.6276609722
 30
0.0
  0
ENDBLK
  5
268
330
223
100
AcDbEntity
  8
0
  6
ByBlock
 62
     0
100
AcDbBlockEnd
  0
BLOCK
  5
269
330
224
100
AcDbEntity
  8
0
  6
Continuous
 62
     2
100
AcDbBlockBegin
  2
*D3
 70
     1
 10
0.0
 20
0.0
 30
0.0
  3
*D3
  1

  0
LINE
  5
A56
330
224
100
AcDbEntity
  8
0
  6
Continuous
 62
     2
370
    -2
100
AcDbLine
 10
171.1407683485
 20
163.3534451146
 30
0.0
 11
171.1407683485
 21
142.5877091644
 31
0.0
  0
LINE
  5
A57
330
224
100
AcDbEntity
  8
0
  6
Continuous
 62
     2
370
    -2
100
AcDbLine
 10
189.4407683484999
 20
151.0534489894
 30
0.0
 11
189.4407683484999
 21
142.5877091644
 31
0.0
  0
LINE
  5
A58
330
224
100
AcDbEntity
  8
0
  6
Continuous
 62
     2
370
    -2
100
AcDbLine
 10
174.1407683485
 20
144.1877091644
 30
0.0
 11
186.4407683484999
 21
144.1877091644
 31
0.0
  0
INSERT
  5
A59
330
224
100
AcDbEntity
  8
0
  6
Continuous
 62
     2
370
    -2
100
AcDbBlockReference
  2
_FILLED
 10
171.1407683485
 20
144.1877091644
 30
0.0
 41
3.0
 42
3.0
 43
3.0
 50
180.0
  0
INSERT
  5
A5A
330
224
100
AcDbEntity
  8
0
  6
Continuous
 62
     2
370
    -2
100
AcDbBlockReference
  2
_FILLED
 10
189.4407683484999
 20
144.1877091644
 30
0.0
 41
3.0
 42
3.0
 43
3.0
  0
MTEXT
  5
A5B
330
224
100
AcDbEntity
  8
0
  6
Continuous
 62
     3
100
AcDbMText
 10
179.8907693481
 20
147.6898303765212
 30
0.0
 40
2.799999999999998
 41
0.0
 71
     2
 72
     1
  1
\A1;18.3 max.
 73
     1
 44
1.0
1001
ACAD
1000
MTEXTBEGIN
1070
    73
1070
     1
1070
    44
1040
1.0
1070
    74
1070
     0
1000
MTEXTEND
  0
POINT
  5
A5C
330
224
100
AcDbEntity
  8
Defpoints
  6
Continuous
 62
     0
100
AcDbPoint
 10
171.1407683485
 20
163.8534451146
 30
0.0
  0
POINT
  5
A5D
330
224
100
AcDbEntity
  8
Defpoints
  6
Continuous
 62
     0
100
AcDbPoint
 10
189.4407683484999
 20
151.5534489894
 30
0.0
  0
POINT
  5
A5E
330
224
100
AcDbEntity
  8
Defpoints
  6
Continuous
 62
     0
100
AcDbPoint
 10
189.4407683484999
 20
144.1877091644
 30
0.0
  0
ENDBLK
  5
271
330
224
100
AcDbEntity
  8
0
  6
ByBlock
 62
     0
100
AcDbBlockEnd
  0
BLOCK
  5
272
330
225
100
AcDbEntity
  8
0
  6
Continuous
 62
     2
100
AcDbBlockBegin
  2
*D4
 70
     1
 10
0.0
 20
0.0
 30
0.0
  3
*D4
  1

  0
LINE
  5
9B2
330
225
100
AcDbEntity
  8
0
  6
Continuous
 62
     2
370
    -2
100
AcDbLine
 10
189.4407683484999
 20
225.0301199973
 30
0.0
 11
189.4407683484999
 21
233.5347194561
 31
0.0
  0
LINE
  5
9B3
330
225
100
AcDbEntity
  8
0
  6
Continuous
 62
     2
370
    -2
100
AcDbLine
 10
245.4407683485
 20
225.0301199857
 30
0.0
 11
245.4407683485
 21
233.5347194561
 31
0.0
  0
LINE
  5
9B4
330
225
100
AcDbEntity
  8
0
  6
Continuous
 62
     2
370
    -2
100
AcDbLine
 10
192.4407683484999
 20
231.9347194561
 30
0.0
 11
242.4407683485
 21
231.9347194561
 31
0.0
  0
INSERT
  5
9B5
330
225
100
AcDbEntity
  8
0
  6
Continuous
 62
     2
370
    -2
100
AcDbBlockReference
  2
_FILLED
 10
189.4407683484999
 20
231.9347194561
 30
0.0
 41
3.0
 42
3.0
 43
3.0
 50
180.0
  0
INSERT
  5
9B6
330
225
100
AcDbEntity
  8
0
  6
Continuous
 62
     2
370
    -2
100
AcDbBlockReference
  2
_FILLED
 10
245.4407683485
 20
231.9347194561
 30
0.0
 41
3.0
 42
3.0
 43
3.0
  0
MTEXT
  5
9B7
330
225
100
AcDbEntity
  8
0
  6
Continuous
 62
     3
100
AcDbMText
 10
217.0407678223
 20
235.4347194561
 30
0.0
 40
2.799999999999998
 41
0.0
 71
     2
 72
     1
  1
\A1;56%%P0.5
 73
     1
 44
1.0
1001
ACAD
1000
MTEXTBEGIN
1070
    73
1070
     1
1070
    44
1040
1.0
1070
    74
1070
     0
1000
MTEXTEND
  0
POINT
  5
9B8
330
225
100
AcDbEntity
  8
Defpoints
  6
Continuous
 62
     0
100
AcDbPoint
 10
189.4407683484999
 20
224.5301199973
 30
0.0
  0
POINT
  5
9B9
330
225
100
AcDbEntity
  8
Defpoints
  6
Continuous
 62
     0
100
AcDbPoint
 10
245.4407683485
 20
224.5301199857
 30
0.0
  0
POINT
  5
9BA
330
225
100
AcDbEntity
  8
Defpoints
  6
Continuous
 62
     0
100
AcDbPoint
 10
245.4407683485
 20
231.9347194561
 30
0.0
  0
ENDBLK
  5
27A
330
225
100
AcDbEntity
  8
0
  6
ByBlock
 62
     0
100
AcDbBlockEnd
  0
BLOCK
  5
27B
330
226
100
AcDbEntity
  8
0
  6
Continuous
 62
     2
100
AcDbBlockBegin
  2
*D5
 70
     1
 10
0.0
 20
0.0
 30
0.0
  3
*D5
  1

  0
LINE
  5
94D
330
226
100
AcDbEntity
  8
0
  6
Continuous
 62
     2
370
    -2
100
AcDbLine
 10
231.6407683485
 20
151.0534451146
 30
0.0
 11
216.1774354823001
 21
151.0534451146
 31
0.0
  0
LINE
  5
94E
330
226
100
AcDbEntity
  8
0
  6
Continuous
 62
     2
370
    -2
100
AcDbLine
 10
231.6407683485
 20
122.3493436796
 30
0.0
 11
216.1774354823001
 21
122.3493436796
 31
0.0
  0
LINE
  5
94F
330
226
100
AcDbEntity
  8
0
  6
Continuous
 62
     2
370
    -2
100
AcDbLine
 10
217.7774354823
 20
148.0534451146
 30
0.0
 11
217.7774354823
 21
125.3493436796
 31
0.0
  0
INSERT
  5
950
330
226
100
AcDbEntity
  8
0
  6
Continuous
 62
     2
370
    -2
100
AcDbBlockReference
  2
_FILLED
 10
217.7774354823
 20
151.0534451146
 30
0.0
 41
3.0
 42
3.0
 43
3.0
 50
90.0
  0
INSERT
  5
951
330
226
100
AcDbEntity
  8
0
  6
Continuous
 62
     2
370
    -2
100
AcDbBlockReference
  2
_FILLED
 10
217.7774354823
 20
122.3493436796
 30
0.0
 41
3.0
 42
3.0
 43
3.0
 50
270.0
  0
MTEXT
  5
952
330
226
100
AcDbEntity
  8
0
  6
Continuous
 62
     3
100
AcDbMText
 10
214.2774354823
 20
136.7013943971
 30
0.0
 40
2.799999999999998
 41
0.0
 71
     2
 72
     1
  1
\A1;500{\H0.71429x;%%P15}
 11
0.0000000000000001
 21
1.0
 31
0.0
 73
     1
 44
1.0
1001
ACAD
1000
MTEXTBEGIN
1070
    73
1070
     1
1070
    44
1040
1.0
1070
    74
1070
     0
1000
MTEXTEND
  0
POINT
  5
953
330
226
100
AcDbEntity
  8
Defpoints
  6
Continuous
 62
     0
100
AcDbPoint
 10
232.1407683485
 20
151.0534451146
 30
0.0
  0
POINT
  5
954
330
226
100
AcDbEntity
  8
Defpoints
  6
Continuous
 62
     0
100
AcDbPoint
 10
232.1407683485
 20
122.3493436796
 30
0.0
  0
POINT
  5
955
330
226
100
AcDbEntity
  8
Defpoints
  6
Continuous
 62
     0
100
AcDbPoint
 10
217.7774354823
 20
122.3493436796
 30
0.0
  0
ENDBLK
  5
285
330
226
100
AcDbEntity
  8
0
  6
ByBlock
 62
     0
100
AcDbBlockEnd
  0
BLOCK
  5
286
330
227
100
AcDbEntity
  8
0
  6
Continuous
 62
     2
100
AcDbBlockBegin
  2
*D6
 70
     1
 10
0.0
 20
0.0
 30
0.0
  3
*D6
  1

  0
LINE
  5
88D
330
227
100
AcDbEntity
  8
0
  6
Continuous
 62
     2
370
    -2
100
AcDbLine
 10
263.8370725002
 20
190.5534451146
 30
0.0
 11
275.7648826860001
 21
190.5534451146
 31
0.0
  0
LINE
  5
88E
330
227
100
AcDbEntity
  8
0
  6
Continuous
 62
     2
370
    -2
100
AcDbLine
 10
263.9511254534
 20
185.5534451146
 30
0.0
 11
275.7648826860001
 21
185.5534451146
 31
0.0
  0
LINE
  5
88F
330
227
100
AcDbEntity
  8
0
  6
Continuous
 62
     2
370
    -2
100
AcDbLine
 10
274.164882686
 20
182.5534451146
 30
0.0
 11
274.164882686
 21
179.5534451146
 31
0.0
  0
LINE
  5
890
330
227
100
AcDbEntity
  8
0
  6
Continuous
 62
     2
370
    -2
100
AcDbLine
 10
274.164882686
 20
193.5534451146
 30
0.0
 11
274.164882686
 21
209.5034451146
 31
0.0
  0
INSERT
  5
891
330
227
100
AcDbEntity
  8
0
  6
Continuous
 62
     2
370
    -2
100
AcDbBlockReference
  2
_FILLED
 10
274.164882686
 20
185.5534451146
 30
0.0
 41
3.0
 42
3.0
 43
3.0
 50
90.0
  0
INSERT
  5
892
330
227
100
AcDbEntity
  8
0
  6
Continuous
 62
     2
370
    -2
100
AcDbBlockReference
  2
_FILLED
 10
274.164882686
 20
190.5534451146
 30
0.0
 41
3.0
 42
3.0
 43
3.0
 50
270.0
  0
MTEXT
  5
893
330
227
100
AcDbEntity
  8
0
  6
Continuous
 62
     3
100
AcDbMText
 10
268.564882686
 20
197.2534451146
 30
0.0
 40
2.799999999999998
 41
0.0
 71
     1
 72
     1
  1
\A1;%%c5{\H2.100000;\S-0.01^ -0.014;}
 11
0.0000000000000001
 21
1.0
 31
0.0
 73
     1
 44
1.0
1001
ACAD
1000
MTEXTBEGIN
1070
    73
1070
     1
1070
    44
1040
1.0
1070
    74
1070
     0
1000
MTEXTEND
  0
POINT
  5
894
330
227
100
AcDbEntity
  8
Defpoints
  6
Continuous
 62
     0
100
AcDbPoint
 10
263.3370725002
 20
190.5534451146
 30
0.0
  0
POINT
  5
895
330
227
100
AcDbEntity
  8
Defpoints
  6
Continuous
 62
     0
100
AcDbPoint
 10
263.4511254534
 20
185.5534451146
 30
0.0
  0
POINT
  5
896
330
227
100
AcDbEntity
  8
Defpoints
  6
Continuous
 62
     0
100
AcDbPoint
 10
274.164882686
 20
185.5534451146
 30
0.0
  0
ENDBLK
  5
293
330
227
100
AcDbEntity
  8
0
  6
ByBlock
 62
     0
100
AcDbBlockEnd
  0
BLOCK
  5
294
330
228
100
AcDbEntity
  8
0
  6
Continuous
 62
     2
100
AcDbBlockBegin
  2
*D7
 70
     1
 10
0.0
 20
0.0
 30
0.0
  3
*D7
  1

  0
LINE
  5
956
330
228
100
AcDbEntity
  8
0
  6
Continuous
 62
     2
370
    -2
100
AcDbLine
 10
265.4407683485
 20
185.0534451146
 30
0.0
 11
265.4407683485
 21
158.7222832577
 31
0.0
  0
LINE
  5
957
330
228
100
AcDbEntity
  8
0
  6
Continuous
 62
     2
370
    -2
100
AcDbLine
 10
245.4407683485
 20
185.0534451146
 30
0.0
 11
245.4407683485
 21
158.7222832577
 31
0.0
  0
LINE
  5
958
330
228
100
AcDbEntity
  8
0
  6
Continuous
 62
     2
370
    -2
100
AcDbLine
 10
262.4407683485
 20
160.3222832577
 30
0.0
 11
248.4407683485
 21
160.3222832577
 31
0.0
  0
INSERT
  5
959
330
228
100
AcDbEntity
  8
0
  6
Continuous
 62
     2
370
    -2
100
AcDbBlockReference
  2
_FILLED
 10
265.4407683485
 20
160.3222832577
 30
0.0
 41
3.0
 42
3.0
 43
3.0
  0
INSERT
  5
95A
330
228
100
AcDbEntity
  8
0
  6
Continuous
 62
     2
370
    -2
100
AcDbBlockReference
  2
_FILLED
 10
245.4407683485
 20
160.3222832577
 30
0.0
 41
3.0
 42
3.0
 43
3.0
 50
180.0
  0
MTEXT
  5
95B
330
228
100
AcDbEntity
  8
0
  6
Continuous
 62
     3
100
AcDbMText
 10
255.4407683485
 20
163.8222832577
 30
0.0
 40
2.799999999999998
 41
0.0
 71
     2
 72
     1
  1
\A1;20±0.5
 73
     1
 44
1.0
1001
ACAD
1000
MTEXTBEGIN
1070
    73
1070
     1
1070
    44
1040
1.0
1070
    74
1070
     0
1000
MTEXTEND
  0
POINT
  5
95C
330
228
100
AcDbEntity
  8
Defpoints
  6
Continuous
 62
     0
100
AcDbPoint
 10
265.4407683485
 20
185.5534451146
 30
0.0
  0
POINT
  5
95D
330
228
100
AcDbEntity
  8
Defpoints
  6
Continuous
 62
     0
100
AcDbPoint
 10
245.4407683485
 20
185.5534451146
 30
0.0
  0
POINT
  5
95E
330
228
100
AcDbEntity
  8
Defpoints
  6
Continuous
 62
     0
100
AcDbPoint
 10
245.4407683485
 20
160.3222832577
 30
0.0
  0
ENDBLK
  5
29E
330
228
100
AcDbEntity
  8
0
  6
ByBlock
 62
     0
100
AcDbBlockEnd
  0
BLOCK
  5
29F
330
229
100
AcDbEntity
  8
0
  6
Continuous
 62
     2
100
AcDbBlockBegin
  2
*D8
 70
     1
 10
0.0
 20
0.0
 30
0.0
  3
*D8
  1

  0
LINE
  5
A13
330
229
100
AcDbEntity
  8
0
  6
Continuous
 62
     2
370
    -2
100
AcDbLine
 10
366.5723343853256
 20
162.0280843592675
 30
0.0
 11
322.814793432574
 21
214.0788058698323
 31
0.0
  0
LINE
  5
A14
330
229
100
AcDbEntity
  8
0
  6
Continuous
 62
     2
370
    -2
100
AcDbLine
 10
320.8843136846589
 20
216.3751612305919
 30
0.0
 11
312.2464491707999
 21
226.6501234534999
 31
0.0
  0
LINE
  5
A15
330
229
100
AcDbEntity
  8
0
  6
Continuous
 62
     2
370
    -2
100
AcDbLine
 10
312.2464491707999
 20
226.6501234534999
 30
0.0
 11
300.9814491707997
 21
226.6501234535
 31
0.0
  0
INSERT
  5
A16
330
229
100
AcDbEntity
  8
0
  6
Continuous
 62
     2
370
    -2
100
AcDbBlockReference
  2
_FILLED
 10
368.5028141332406
 20
159.7317289985078
 30
0.0
 41
3.0
 42
3.0
 43
3.0
 50
310.0527982613897
  0
INSERT
  5
A17
330
229
100
AcDbEntity
  8
0
  6
Continuous
 62
     2
370
    -2
100
AcDbBlockReference
  2
_FILLED
 10
320.8843136846589
 20
216.3751612305919
 30
0.0
 41
3.0
 42
3.0
 43
3.0
 50
310.0527982613897
  0
LINE
  5
A18
330
229
100
AcDbEntity
  8
0
  6
Continuous
 62
     2
370
    -2
100
AcDbLine
 10
318.9538339367439
 20
218.6715165913516
 30
0.0
 11
317.0233541888288
 21
220.9678719521113
 31
0.0
  0
LINE
  5
A19
330
229
100
AcDbEntity
  8
0
  6
Continuous
 62
     2
370
    -2
100
AcDbLine
 10
320.8843136846589
 20
216.3751612305919
 30
0.0
 11
322.814793432574
 21
214.0788058698323
 31
0.0
  0
MTEXT
  5
A1A
330
229
100
AcDbEntity
  8
0
  6
Continuous
 62
     3
100
AcDbMText
 10
311.6214491707999
 20
232.1767143625908
 30
0.0
 40
2.799999999999998
 41
0.0
 71
     3
 72
     1
  1
\A1;%%c74{\H2.100000;\S 0^ -0.1;}
 73
     1
 44
1.0
1001
ACAD
1000
MTEXTBEGIN
1070
    73
1070
     1
1070
    44
1040
1.0
1070
    74
1070
     0
1000
MTEXTEND
  0
POINT
  5
A1B
330
229
100
AcDbEntity
  8
Defpoints
  6
Continuous
 62
     0
100
AcDbPoint
 10
320.8843136846589
 20
216.3751612305919
 30
0.0
  0
POINT
  5
A1C
330
229
100
AcDbEntity
  8
Defpoints
  6
Continuous
 62
     0
100
AcDbPoint
 10
368.5028141332406
 20
159.7317289985078
 30
0.0
  0
ENDBLK
  5
2A8
330
229
100
AcDbEntity
  8
0
  6
ByBlock
 62
     0
100
AcDbBlockEnd
  0
BLOCK
  5
2A9
330
22A
100
AcDbEntity
  8
0
  6
Continuous
 62
     2
100
AcDbBlockBegin
  2
*D9
 70
     1
 10
0.0
 20
0.0
 30
0.0
  3
*D9
  1

  0
LINE
  5
944
330
22A
100
AcDbEntity
  8
0
  6
Continuous
 62
     2
370
    -2
100
AcDbLine
 10
95.37201906737324
 20
209.1143920022286
 30
0.0
 11
98.14201248110837
 21
207.9623779016795
 31
0.0
  0
LINE
  5
945
330
22A
100
AcDbEntity
  8
0
  6
Continuous
 62
     2
370
    -2
100
AcDbLine
 10
86.13870768822668
 20
212.9544390040714
 30
0.0
 11
77.07301906086662
 21
216.7247732864999
 31
0.0
  0
LINE
  5
946
330
22A
100
AcDbEntity
  8
0
  6
Continuous
 62
     2
370
    -2
100
AcDbLine
 10
77.07301906086662
 20
216.7247732864999
 30
0.0
 11
51.27468572753329
 21
216.7247732864999
 31
0.0
  0
LINE
  5
947
330
22A
100
AcDbEntity
  8
0
  6
Continuous
 62
     2
370
    -2
100
AcDbLine
 10
92.60202565363814
 20
210.2664061027778
 30
0.0
 11
88.90870110196187
 21
211.8024249035223
 31
0.0
  0
INSERT
  5
948
330
22A
100
AcDbEntity
  8
0
  6
Continuous
 62
     2
370
    -2
100
AcDbBlockReference
  2
_FILLED
 10
92.60202565363814
 20
210.2664061027778
 30
0.0
 41
3.0
 42
3.0
 43
3.0
 50
157.4180352756973
  0
INSERT
  5
949
330
22A
100
AcDbEntity
  8
0
  6
Continuous
 62
     2
370
    -2
100
AcDbBlockReference
  2
_FILLED
 10
88.90870110196187
 20
211.8024249035223
 30
0.0
 41
3.0
 42
3.0
 43
3.0
 50
337.4180352756974
  0
MTEXT
  5
94A
330
22A
100
AcDbEntity
  8
0
  6
Continuous
 62
     3
100
AcDbMText
 10
76.44801906086668
 20
224.8185611652879
 30
0.0
 40
2.799999999999998
 41
0.0
 71
     3
 72
     1
  1
\A1;4x M4 {\Fgdt|c0;x}6 max\P90%%D APART
 73
     1
 44
1.0
1001
ACAD
1000
MTEXTBEGIN
1070
    73
1070
     1
1070
    44
1040
1.0
1070
    74
1070
     0
1000
MTEXTEND
  0
POINT
  5
94B
330
22A
100
AcDbEntity
  8
Defpoints
  6
Continuous
 62
     0
100
AcDbPoint
 10
88.90870110196187
 20
211.8024249035223
 30
0.0
  0
POINT
  5
94C
330
22A
100
AcDbEntity
  8
Defpoints
  6
Continuous
 62
     0
100
AcDbPoint
 10
92.60202565363814
 20
210.2664061027778
 30
0.0
  0
ENDBLK
  5
2AF
330
22A
100
AcDbEntity
  8
0
  6
ByBlock
 62
     0
100
AcDbBlockEnd
  0
BLOCK
  5
2B0
330
22B
100
AcDbEntity
  8
0
  6
Continuous
 62
     2
100
AcDbBlockBegin
  2
*D10
 70
     1
 10
0.0
 20
0.0
 30
0.0
  3
*D10
  1

  0
LINE
  5
93C
330
22B
100
AcDbEntity
  8
0
  6
Continuous
 62
     2
370
    -2
100
AcDbLine
 10
129.8173418281769
 20
163.3218624778407
 30
0.0
 11
97.65532570462307
 21
212.7850277512594
 31
0.0
  0
LINE
  5
93D
330
22B
100
AcDbEntity
  8
0
  6
Continuous
 62
     2
370
    -2
100
AcDbLine
 10
96.0199689525773
 20
215.3001039516038
 30
0.0
 11
87.77247595160002
 21
227.9842313344
 31
0.0
  0
LINE
  5
93E
330
22B
100
AcDbEntity
  8
0
  6
Continuous
 62
     2
370
    -2
100
AcDbLine
 10
87.77247595160002
 20
227.9842313344
 30
0.0
 11
72.58747595160001
 21
227.9842313344
 31
0.0
  0
INSERT
  5
93F
330
22B
100
AcDbEntity
  8
0
  6
Continuous
 62
     2
370
    -2
100
AcDbBlockReference
  2
_FILLED
 10
131.4526985802225
 20
160.8067862774964
 30
0.0
 41
3.0
 42
3.0
 43
3.0
 50
303.0327904009815
  0
INSERT
  5
940
330
22B
100
AcDbEntity
  8
0
  6
Continuous
 62
     2
370
    -2
100
AcDbBlockReference
  2
_FILLED
 10
96.0199689525773
 20
215.3001039516038
 30
0.0
 41
3.0
 42
3.0
 43
3.0
 50
123.0327904009815
  0
MTEXT
  5
941
330
22B
100
AcDbEntity
  8
0
  6
Continuous
 62
     3
100
AcDbMText
 10
87.14747595160003
 20
231.4092313344001
 30
0.0
 40
2.799999999999998
 41
0.0
 71
     3
 72
     1
  1
\A1;%%c65±0.05
 73
     1
 44
1.0
1001
ACAD
1000
MTEXTBEGIN
1070
    73
1070
     1
1070
    44
1040
1.0
1070
    74
1070
     0
1000
MTEXTEND
  0
POINT
  5
942
330
22B
100
AcDbEntity
  8
Defpoints
  6
Continuous
 62
     0
100
AcDbPoint
 10
96.0199689525773
 20
215.3001039516038
 30
0.0
  0
POINT
  5
943
330
22B
100
AcDbEntity
  8
Defpoints
  6
Continuous
 62
     0
100
AcDbPoint
 10
131.4526985802225
 20
160.8067862774964
 30
0.0
  0
ENDBLK
  5
2B9
330
22B
100
AcDbEntity
  8
0
  6
ByBlock
 62
     0
100
AcDbBlockEnd
  0
BLOCK
  5
2BA
330
22C
100
AcDbEntity
  8
0
  6
Continuous
 62
     2
100
AcDbBlockBegin
  2
*D11
 70
     1
 10
0.0
 20
0.0
 30
0.0
  3
*D11
  1

  0
LINE
  5
8B9
330
22C
100
AcDbEntity
  8
0
  6
Continuous
 62
     2
370
    -2
100
AcDbLine
 10
245.4407683485
 20
208.5534451146
 30
0.0
 11
245.4407683485
 21
219.1484529945
 31
0.0
  0
LINE
  5
8BA
330
22C
100
AcDbEntity
  8
0
  6
Continuous
 62
     2
370
    -2
100
AcDbLine
 10
247.9407683485
 20
208.5534451146
 30
0.0
 11
247.9407683485
 21
219.1484529945
 31
0.0
  0
LINE
  5
8BB
330
22C
100
AcDbEntity
  8
0
  6
Continuous
 62
     2
370
    -2
100
AcDbLine
 10
242.4407683485
 20
217.5484529945
 30
0.0
 11
239.4407683485
 21
217.5484529945
 31
0.0
  0
LINE
  5
8BC
330
22C
100
AcDbEntity
  8
0
  6
Continuous
 62
     2
370
    -2
100
AcDbLine
 10
250.9407683485
 20
217.5484529945
 30
0.0
 11
264.4407683485
 21
217.5484529945
 31
0.0
  0
INSERT
  5
8BD
330
22C
100
AcDbEntity
  8
0
  6
Continuous
 62
     2
370
    -2
100
AcDbBlockReference
  2
_FILLED
 10
245.4407683485
 20
217.5484529945
 30
0.0
 41
3.0
 42
3.0
 43
3.0
  0
INSERT
  5
8BE
330
22C
100
AcDbEntity
  8
0
  6
Continuous
 62
     2
370
    -2
100
AcDbBlockReference
  2
_FILLED
 10
247.9407683485
 20
217.5484529945
 30
0.0
 41
3.0
 42
3.0
 43
3.0
 50
180.0
  0
MTEXT
  5
8BF
330
22C
100
AcDbEntity
  8
0
  6
Continuous
 62
     3
100
AcDbMText
 10
254.6407683485
 20
223.1500439035909
 30
0.0
 40
2.799999999999998
 41
0.0
 71
     1
 72
     1
  1
\A1;2.5{\H2.100000;\S+0.2^  0;}
 73
     1
 44
1.0
1001
ACAD
1000
MTEXTBEGIN
1070
    73
1070
     1
1070
    44
1040
1.0
1070
    74
1070
     0
1000
MTEXTEND
  0
POINT
  5
8C0
330
22C
100
AcDbEntity
  8
Defpoints
  6
Continuous
 62
     0
100
AcDbPoint
 10
245.4407683485
 20
208.0534451146
 30
0.0
  0
POINT
  5
8C1
330
22C
100
AcDbEntity
  8
Defpoints
  6
Continuous
 62
     0
100
AcDbPoint
 10
247.9407683485
 20
208.0534451146
 30
0.0
  0
POINT
  5
8C2
330
22C
100
AcDbEntity
  8
Defpoints
  6
Continuous
 62
     0
100
AcDbPoint
 10
247.9407683485
 20
217.5484529945
 30
0.0
  0
ENDBLK
  5
2C6
330
22C
100
AcDbEntity
  8
0
  6
ByBlock
 62
     0
100
AcDbBlockEnd
  0
BLOCK
  5
2C7
330
22D
100
AcDbEntity
  8
0
  6
Continuous
 62
     2
100
AcDbBlockBegin
  2
*D12
 70
     1
 10
0.0
 20
0.0
 30
0.0
  3
*D12
  1

  0
LINE
  5
97D
330
22D
100
AcDbEntity
  8
0
  6
Continuous
 62
     2
370
    -2
100
AcDbLine
 10
248.4407683485
 20
168.0534451146
 30
0.0
 11
285.8216532946002
 21
168.0534451146
 31
0.0
  0
LINE
  5
97E
330
22D
100
AcDbEntity
  8
0
  6
Continuous
 62
     2
370
    -2
100
AcDbLine
 10
248.4407683485
 20
208.0534451146
 30
0.0
 11
267.13121082155
 21
208.0534451146
 31
0.0
  0
LINE
  5
97F
330
22D
100
AcDbEntity
  8
0
  6
Continuous
 62
     2
370
    -2
100
AcDbLine
 10
275.841560297849
 20
208.0534451146
 30
0.0
 11
285.8216532946002
 21
208.0534451146
 31
0.0
  0
LINE
  5
980
330
22D
100
AcDbEntity
  8
0
  6
Continuous
 62
     2
370
    -2
100
AcDbLine
 10
284.2216532946001
 20
171.0534451146
 30
0.0
 11
284.2216532946001
 21
205.0534451146
 31
0.0
  0
INSERT
  5
981
330
22D
100
AcDbEntity
  8
0
  6
Continuous
 62
     2
370
    -2
100
AcDbBlockReference
  2
_FILLED
 10
284.2216532946001
 20
168.0534451146
 30
0.0
 41
3.0
 42
3.0
 43
3.0
 50
270.0
  0
INSERT
  5
982
330
22D
100
AcDbEntity
  8
0
  6
Continuous
 62
     2
370
    -2
100
AcDbBlockReference
  2
_FILLED
 10
284.2216532946001
 20
208.0534451146
 30
0.0
 41
3.0
 42
3.0
 43
3.0
 50
90.0
  0
MTEXT
  5
983
330
22D
100
AcDbEntity
  8
0
  6
Continuous
 62
     3
100
AcDbMText
 10
278.6200623855091
 20
191.5975222238
 30
0.0
 40
2.799999999999998
 41
0.0
 71
     2
 72
     1
  1
\A1;%%c40{\H2.100000;\S+0.016^  0;}
 11
0.0000000000000001
 21
1.0
 31
0.0
 73
     1
 44
1.0
1001
ACAD
1000
MTEXTBEGIN
1070
    73
1070
     1
1070
    44
1040
1.0
1070
    74
1070
     0
1000
MTEXTEND
  0
POINT
  5
984
330
22D
100
AcDbEntity
  8
Defpoints
  6
Continuous
 62
     0
100
AcDbPoint
 10
247.9407683485
 20
168.0534451146
 30
0.0
  0
POINT
  5
985
330
22D
100
AcDbEntity
  8
Defpoints
  6
Continuous
 62
     0
100
AcDbPoint
 10
247.9407683485
 20
208.0534451146
 30
0.0
  0
POINT
  5
986
330
22D
100
AcDbEntity
  8
Defpoints
  6
Continuous
 62
     0
100
AcDbPoint
 10
284.2216532946001
 20
208.0534451146
 30
0.0
  0
ENDBLK
  5
2D2
330
22D
100
AcDbEntity
  8
0
  6
ByBlock
 62
     0
100
AcDbBlockEnd
  0
BLOCK
  5
248
330
22E
100
AcDbEntity
  8
0
  6
Continuous
 62
     2
100
AcDbBlockBegin
  2
FIRST_ANGLE_BL0
 70
     0
 10
408.2207895919998
 20
23.5021378843
 30
0.0
  3
FIRST_ANGLE_BL0
  1

  0
LINE
  5
249
330
22E
100
AcDbEntity
  8
0
  6
Continuous
 62
     2
100
AcDbLine
 10
408.0348075633999
 20
26.4608728683
 30
0.0
 11
408.0583016583998
 21
20.8457841528
 31
0.0
  0
LINE
  5
24A
330
22E
100
AcDbEntity
  8
0
  6
Continuous
 62
     2
100
AcDbLine
 10
408.0583016583998
 20
20.8457841528
 30
0.0
 11
400.9769253126
 21
22.3509771608
 31
0.0
  0
LINE
  5
24B
330
22E
100
AcDbEntity
  8
0
  6
Continuous
 62
     2
100
AcDbLine
 10
408.0348075633999
 20
26.4608728683
 30
0.0
 11
400.9662746931
 21
24.8964752192
 31
0.0
  0
LINE
  5
24C
330
22E
100
AcDbEntity
  8
0
  6
Continuous
 62
     2
100
AcDbLine
 10
400.9662746931
 20
24.8964752192
 30
0.0
 11
400.9769253126
 21
22.3509771608
 31
0.0
  0
LINE
  5
24D
330
22E
100
AcDbEntity
  8
DEFAULT_1
  6
CENTER
 62
     2
100
AcDbLine
 10
399.5766769331
 20
23.6458669313
 30
0.0
 11
416.864902251
 21
23.6441550576
 31
0.0
  0
CIRCLE
  5
24E
330
22E
100
AcDbEntity
  8
0
  6
Continuous
 62
     2
100
AcDbCircle
 10
412.6948205158
 20
23.6387949351
 30
0.0
 40
2.831815103699998
  0
CIRCLE
  5
24F
330
22E
100
AcDbEntity
  8
0
  6
Continuous
 62
     2
100
AcDbCircle
 10
412.7077501241
 20
23.6593198989
 30
0.0
 40
2.807557137799999
  0
CIRCLE
  5
250
330
22E
100
AcDbEntity
  8
0
  6
Continuous
 62
     2
100
AcDbCircle
 10
412.8036197630999
 20
23.638934783
 30
0.0
 40
1.2727562903
  0
LINE
  5
251
330
22E
100
AcDbEntity
  8
DEFAULT_1
  6
CENTER
 62
     2
100
AcDbLine
 10
412.7152199705999
 20
19.5021378843
 30
0.0
 11
412.703862044
 21
27.5021378843
 31
0.0
  0
ENDBLK
  5
252
330
22E
100
AcDbEntity
  8
0
  6
ByBlock
 62
     0
100
AcDbBlockEnd
  0
BLOCK
  5
2D3
330
22F
100
AcDbEntity
  8
0
100
AcDbBlockBegin
  2
*T14
 70
     1
 10
0.0
 20
0.0
 30
0.0
  3
*T14
  1

  0
LINE
  5
2D4
330
22F
100
AcDbEntity
  8
0
  6
Continuous
 62
     2
100
AcDbLine
 10
0.0
 20
0.0
 30
0.0
 11
183.0
 21
0.0
 31
0.0
  0
LINE
  5
2D5
330
22F
100
AcDbEntity
  8
0
  6
Continuous
 62
     2
100
AcDbLine
 10
0.0
 20
0.0
 30
0.0
 11
0.0
 21
-18.0
 31
0.0
  0
LINE
  5
2D6
330
22F
100
AcDbEntity
  8
0
  6
Continuous
 62
     2
100
AcDbLine
 10
0.0
 20
-4.5
 30
0.0
 11
183.0
 21
-4.5
 31
0.0
  0
LINE
  5
2D7
330
22F
100
AcDbEntity
  8
0
  6
Continuous
 62
     2
100
AcDbLine
 10
0.0
 20
-9.0
 30
0.0
 11
183.0
 21
-9.0
 31
0.0
  0
LINE
  5
2D8
330
22F
100
AcDbEntity
  8
0
  6
Continuous
 62
     2
100
AcDbLine
 10
0.0
 20
-13.5
 30
0.0
 11
183.0
 21
-13.5
 31
0.0
  0
LINE
  5
2D9
330
22F
100
AcDbEntity
  8
0
  6
Continuous
 62
     2
100
AcDbLine
 10
0.0
 20
-18.0
 30
0.0
 11
183.0
 21
-18.0
 31
0.0
  0
LINE
  5
2DA
330
22F
100
AcDbEntity
  8
0
  6
Continuous
 62
     2
100
AcDbLine
 10
6.0
 20
0.0
 30
0.0
 11
6.0
 21
-18.0
 31
0.0
  0
LINE
  5
2DB
330
22F
100
AcDbEntity
  8
0
  6
Continuous
 62
     2
100
AcDbLine
 10
83.0
 20
0.0
 30
0.0
 11
83.0
 21
-18.0
 31
0.0
  0
LINE
  5
2DC
330
22F
100
AcDbEntity
  8
0
  6
Continuous
 62
     2
100
AcDbLine
 10
108.0
 20
0.0
 30
0.0
 11
108.0
 21
-18.0
 31
0.0
  0
LINE
  5
2DD
330
22F
100
AcDbEntity
  8
0
  6
Continuous
 62
     2
100
AcDbLine
 10
133.0
 20
0.0
 30
0.0
 11
133.0
 21
-18.0
 31
0.0
  0
LINE
  5
2DE
330
22F
100
AcDbEntity
  8
0
  6
Continuous
 62
     2
100
AcDbLine
 10
158.0
 20
0.0
 30
0.0
 11
158.0
 21
-18.0
 31
0.0
  0
LINE
  5
2DF
330
22F
100
AcDbEntity
  8
0
  6
Continuous
 62
     2
100
AcDbLine
 10
183.0
 20
0.0
 30
0.0
 11
183.0
 21
-18.0
 31
0.0
  0
MTEXT
  5
2E0
330
22F
100
AcDbEntity
  8
0
  6
Continuous
 62
     5
100
AcDbMText
 10
3.0
 20
-10.5
 30
0.0
 40
1.5
 41
4.0714285714
 71
     2
 72
     1
  1
01
 73
     1
 44
0.9
1001
ACAD
1000
MTEXTBEGIN
1070
    73
1070
     1
1070
    44
1040
0.9
1070
    74
1070
     0
1000
MTEXTEND
  0
MTEXT
  5
2E1
330
22F
100
AcDbEntity
  8
0
  6
Continuous
 62
     5
100
AcDbMText
 10
6.0625
 20
-10.5
 30
0.0
 40
1.5
 41
151.2857142857
 71
     1
 72
     1
  1
Changed dim. \Fgdt;{\Fgdt;n}\Ftxt;5 0/-0.014 & 20 +/-0.6 to \Fgdt;{\Fgdt;n}\Ftxt;5 -0.01/-0.014 & 20 +/-0.5
 73
     1
 44
0.9
1001
ACAD
1000
MTEXTBEGIN
1070
    73
1070
     1
1070
    44
1040
0.9
1070
    74
1070
     0
1000
MTEXTEND
  0
MTEXT
  5
2E2
330
22F
100
AcDbEntity
  8
0
  6
Continuous
 62
     5
100
AcDbMText
 10
120.5
 20
-10.5
 30
0.0
 40
1.5
 41
29.9285714286
 71
     2
 72
     1
  1
31.05.2013 SSC
 73
     1
 44
0.9
1001
ACAD
1000
MTEXTBEGIN
1070
    73
1070
     1
1070
    44
1040
0.9
1070
    74
1070
     0
1000
MTEXTEND
  0
MTEXT
  5
2E3
330
22F
100
AcDbEntity
  8
0
  6
Continuous
 62
     5
100
AcDbMText
 10
3.0
 20
-14.875
 30
0.0
 40
1.75
 41
8.216796875
 71
     2
 72
     1
  1
No.
  7
TEXTSTYLE_2
 73
     1
 44
0.9
1001
ACAD
1000
MTEXTBEGIN
1070
    73
1070
     1
1070
    44
1040
0.9
1070
    74
1070
     0
1000
MTEXTEND
  0
MTEXT
  5
2E4
330
22F
100
AcDbEntity
  8
0
  6
Continuous
 62
     5
100
AcDbMText
 10
44.5
 20
-14.875
 30
0.0
 40
1.75
 41
29.873046875
 71
     2
 72
     1
  1
Modifications
  7
TEXTSTYLE_2
 73
     1
 44
0.9
1001
ACAD
1000
MTEXTBEGIN
1070
    73
1070
     1
1070
    44
1040
0.9
1070
    74
1070
     0
1000
MTEXTEND
  0
MTEXT
  5
2E5
330
22F
100
AcDbEntity
  8
0
  6
Continuous
 62
     5
100
AcDbMText
 10
95.5
 20
-14.875
 30
0.0
 40
1.75
 41
35.24609375
 71
     2
 72
     1
  1
Communication
  7
TEXTSTYLE_2
 73
     1
 44
0.9
1001
ACAD
1000
MTEXTBEGIN
1070
    73
1070
     1
1070
    44
1040
0.9
1070
    74
1070
     0
1000
MTEXTEND
  0
MTEXT
  5
2E6
330
22F
100
AcDbEntity
  8
0
  6
Continuous
 62
     5
100
AcDbMText
 10
120.5
 20
-14.875
 30
0.0
 40
1.75
 41
14.9296875
 71
     2
 72
     1
  1
Drawn
  7
TEXTSTYLE_2
 73
     1
 44
0.9
1001
ACAD
1000
MTEXTBEGIN
1070
    73
1070
     1
1070
    44
1040
0.9
1070
    74
1070
     0
1000
MTEXTEND
  0
MTEXT
  5
2E7
330
22F
100
AcDbEntity
  8
0
  6
Continuous
 62
     5
100
AcDbMText
 10
145.5
 20
-14.875
 30
0.0
 40
1.75
 41
19.1953125
 71
     2
 72
     1
  1
Checked
  7
TEXTSTYLE_2
 73
     1
 44
0.9
1001
ACAD
1000
MTEXTBEGIN
1070
    73
1070
     1
1070
    44
1040
0.9
1070
    74
1070
     0
1000
MTEXTEND
  0
MTEXT
  5
2E8
330
22F
100
AcDbEntity
  8
0
  6
Continuous
 62
     5
100
AcDbMText
 10
170.5
 20
-14.875
 30
0.0
 40
1.75
 41
21.546875
 71
     2
 72
     1
  1
Approved
  7
TEXTSTYLE_2
 73
     1
 44
0.9
1001
ACAD
1000
MTEXTBEGIN
1070
    73
1070
     1
1070
    44
1040
0.9
1070
    74
1070
     0
1000
MTEXTEND
  0
ENDBLK
  5
2E9
330
22F
100
AcDbEntity
  8
0
  6
ByBlock
 62
     0
100
AcDbBlockEnd
  0
BLOCK
  5
2EA
330
230
100
AcDbEntity
  8
0
100
AcDbBlockBegin
  2
*T15
 70
     1
 10
0.0
 20
0.0
 30
0.0
  3
*T15
  1

  0
LINE
  5
2EB
330
230
100
AcDbEntity
  8
0
  6
Continuous
 62
     2
100
AcDbLine
 10
0.0
 20
0.0
 30
0.0
 11
125.0
 21
0.0
 31
0.0
  0
LINE
  5
2EC
330
230
100
AcDbEntity
  8
0
  6
Continuous
 62
     2
100
AcDbLine
 10
0.0
 20
0.0
 30
0.0
 11
0.0
 21
-21.0
 31
0.0
  0
LINE
  5
2ED
330
230
100
AcDbEntity
  8
0
  6
Continuous
 62
     2
100
AcDbLine
 10
0.0
 20
-15.0
 30
0.0
 11
50.0
 21
-15.0
 31
0.0
  0
LINE
  5
2EE
330
230
100
AcDbEntity
  8
0
  6
Continuous
 62
     2
100
AcDbLine
 10
0.0
 20
-21.0
 30
0.0
 11
125.0
 21
-21.0
 31
0.0
  0
LINE
  5
2EF
330
230
100
AcDbEntity
  8
0
  6
Continuous
 62
     2
100
AcDbLine
 10
50.0
 20
0.0
 30
0.0
 11
50.0
 21
-21.0
 31
0.0
  0
LINE
  5
2F0
330
230
100
AcDbEntity
  8
0
  6
Continuous
 62
     2
100
AcDbLine
 10
125.0
 20
0.0
 30
0.0
 11
125.0
 21
-21.0
 31
0.0
  0
MTEXT
  5
2F1
330
230
100
AcDbEntity
  8
0
  6
Continuous
 62
     1
100
AcDbMText
 10
25.0
 20
4.5
 30
0.0
 40
6.0
 41
80.44444444439999
 71
     2
 72
     1
  1
 \PPortescap\P 
  7
TEXTSTYLE_3
 73
     1
 44
0.9
1001
ACAD
1000
MTEXTBEGIN
1070
    73
1070
     1
1070
    44
1040
0.9
1070
    74
1070
     0
1000
MTEXTEND
  0
MTEXT
  5
2F2
330
230
100
AcDbEntity
  8
0
  6
Continuous
 62
     5
100
AcDbMText
 10
87.5
 20
-4.25
 30
0.0
 40
5.0
 41
102.65625
 71
     2
 72
     1
  1
Description\POutline drawing
  7
TEXTSTYLE_2
 73
     1
 44
0.9
1001
ACAD
1000
MTEXTBEGIN
1070
    73
1070
     1
1070
    44
1040
0.9
1070
    74
1070
     0
1000
MTEXTEND
  0
MTEXT
  5
2F3
330
230
100
AcDbEntity
  8
0
  6
Continuous
 62
     5
100
AcDbMText
 10
1.399999999999999
 20
-16.9
 30
0.0
 40
2.2
 41
47.78125
 71
     1
 72
     1
  1
PI/R /F/18 Rev 00
  7
TEXTSTYLE_2
 73
     1
 44
0.9
1001
ACAD
1000
MTEXTBEGIN
1070
    73
1070
     1
1070
    44
1040
0.9
1070
    74
1070
     0
1000
MTEXTEND
  0
ENDBLK
  5
2F4
330
230
100
AcDbEntity
  8
0
  6
ByBlock
 62
     0
100
AcDbBlockEnd
  0
BLOCK
  5
2F5
330
231
100
AcDbEntity
  8
0
100
AcDbBlockBegin
  2
*T16
 70
     1
 10
0.0
 20
0.0
 30
0.0
  3
*T16
  1

  0
LINE
  5
2F6
330
231
100
AcDbEntity
  8
0
  6
Continuous
 62
     2
100
AcDbLine
 10
0.0
 20
0.0
 30
0.0
 11
165.0
 21
0.0
 31
0.0
  0
LINE
  5
2F7
330
231
100
AcDbEntity
  8
0
  6
Continuous
 62
     2
100
AcDbLine
 10
0.0
 20
0.0
 30
0.0
 11
0.0
 21
-6.0
 31
0.0
  0
LINE
  5
2F8
330
231
100
AcDbEntity
  8
0
  6
Continuous
 62
     2
100
AcDbLine
 10
0.0
 20
-6.0
 30
0.0
 11
165.0
 21
-6.0
 31
0.0
  0
LINE
  5
2F9
330
231
100
AcDbEntity
  8
0
  6
Continuous
 62
     2
100
AcDbLine
 10
45.0
 20
0.0
 30
0.0
 11
45.0
 21
-6.0
 31
0.0
  0
LINE
  5
2FA
330
231
100
AcDbEntity
  8
0
  6
Continuous
 62
     2
100
AcDbLine
 10
90.0
 20
0.0
 30
0.0
 11
90.0
 21
-6.0
 31
0.0
  0
LINE
  5
2FB
330
231
100
AcDbEntity
  8
0
  6
Continuous
 62
     2
100
AcDbLine
 10
135.0
 20
0.0
 30
0.0
 11
135.0
 21
-6.0
 31
0.0
  0
LINE
  5
2FC
330
231
100
AcDbEntity
  8
0
  6
Continuous
 62
     2
100
AcDbLine
 10
165.0
 20
0.0
 30
0.0
 11
165.0
 21
-6.0
 31
0.0
  0
MTEXT
  5
2FD
330
231
100
AcDbEntity
  8
0
  6
Continuous
 62
     5
100
AcDbMText
 10
1.399999999999999
 20
-2.0
 30
0.0
 40
2.0
 41
65.671875
 71
     1
 72
     1
  1
 Drawn: 22.02.2013 SSC  
  7
TEXTSTYLE_2
 73
     1
 44
0.9
1001
ACAD
1000
MTEXTBEGIN
1070
    73
1070
     1
1070
    44
1040
0.9
1070
    74
1070
     0
1000
MTEXTEND
  0
MTEXT
  5
2FE
330
231
100
AcDbEntity
  8
0
  6
Continuous
 62
     5
100
AcDbMText
 10
46.39999999999999
 20
-2.0
 30
0.0
 40
2.0
 41
25.1875
 71
     1
 72
     1
  1
 Checked:
  7
TEXTSTYLE_2
 73
     1
 44
0.9
1001
ACAD
1000
MTEXTBEGIN
1070
    73
1070
     1
1070
    44
1040
0.9
1070
    74
1070
     0
1000
MTEXTEND
  0
MTEXT
  5
2FF
330
231
100
AcDbEntity
  8
0
  6
Continuous
 62
     5
100
AcDbMText
 10
91.4
 20
-2.0
 30
0.0
 40
2.0
 41
26.25
 71
     1
 72
     1
  1
Approved:
  7
TEXTSTYLE_2
 73
     1
 44
0.9
1001
ACAD
1000
MTEXTBEGIN
1070
    73
1070
     1
1070
    44
1040
0.9
1070
    74
1070
     0
1000
MTEXTEND
  0
MTEXT
  5
300
330
231
100
AcDbEntity
  8
0
  6
Continuous
 62
     5
100
AcDbMText
 10
136.4
 20
-1.75
 30
0.0
 40
2.5
 41
50.625
 71
     1
 72
     1
  1
Revision No. 01
  7
TEXTSTYLE_2
 73
     1
 44
0.9
1001
ACAD
1000
MTEXTBEGIN
1070
    73
1070
     1
1070
    44
1040
0.9
1070
    74
1070
     0
1000
MTEXTEND
  0
ENDBLK
  5
301
330
231
100
AcDbEntity
  8
0
  6
ByBlock
 62
     0
100
AcDbBlockEnd
  0
BLOCK
  5
302
330
232
100
AcDbEntity
  8
0
100
AcDbBlockBegin
  2
*T17
 70
     1
 10
0.0
 20
0.0
 30
0.0
  3
*T17
  1

  0
LINE
  5
303
330
232
100
AcDbEntity
  8
0
  6
Continuous
 62
     2
100
AcDbLine
 10
0.0
 20
0.0
 30
0.0
 11
65.0
 21
0.0
 31
0.0
  0
LINE
  5
304
330
232
100
AcDbEntity
  8
0
  6
Continuous
 62
     2
100
AcDbLine
 10
0.0
 20
0.0
 30
0.0
 11
0.0
 21
-10.5
 31
0.0
  0
LINE
  5
305
330
232
100
AcDbEntity
  8
0
  6
Continuous
 62
     2
100
AcDbLine
 10
0.0
 20
-10.5
 30
0.0
 11
65.0
 21
-10.5
 31
0.0
  0
LINE
  5
306
330
232
100
AcDbEntity
  8
0
  6
Continuous
 62
     2
100
AcDbLine
 10
55.0
 20
0.0
 30
0.0
 11
55.0
 21
-10.5
 31
0.0
  0
LINE
  5
307
330
232
100
AcDbEntity
  8
0
  6
Continuous
 62
     2
100
AcDbLine
 10
65.0
 20
0.0
 30
0.0
 11
65.0
 21
-10.5
 31
0.0
  0
MTEXT
  5
308
330
232
100
AcDbEntity
  8
0
  6
Continuous
 62
     5
100
AcDbMText
 10
27.5
 20
-3.5
 30
0.0
 40
3.5
 41
73.03515625
 71
     2
 72
     1
  1
7011903660S11
  7
TEXTSTYLE_2
 73
     1
 44
0.9
1001
ACAD
1000
MTEXTBEGIN
1070
    73
1070
     1
1070
    44
1040
0.9
1070
    74
1070
     0
1000
MTEXTEND
  0
MTEXT
  5
309
330
232
100
AcDbEntity
  8
0
  6
Continuous
 62
     5
100
AcDbMText
 10
60.0
 20
-3.5
 30
0.0
 40
3.5
 41
12.46875
 71
     2
 72
     1
  1
A3
  7
TEXTSTYLE_2
 73
     1
 44
0.9
1001
ACAD
1000
MTEXTBEGIN
1070
    73
1070
     1
1070
    44
1040
0.9
1070
    74
1070
     0
1000
MTEXTEND
  0
ENDBLK
  5
30A
330
232
100
AcDbEntity
  8
0
  6
ByBlock
 62
     0
100
AcDbBlockEnd
  0
BLOCK
  5
30B
330
233
100
AcDbEntity
  8
0
100
AcDbBlockBegin
  2
*T18
 70
     1
 10
0.0
 20
0.0
 30
0.0
  3
*T18
  1

  0
LINE
  5
30C
330
233
100
AcDbEntity
  8
0
  6
Continuous
 62
     2
100
AcDbLine
 10
0.0
 20
0.0
 30
0.0
 11
190.0
 21
0.0
 31
0.0
  0
LINE
  5
30D
330
233
100
AcDbEntity
  8
0
  6
Continuous
 62
     2
100
AcDbLine
 10
0.0
 20
0.0
 30
0.0
 11
0.0
 21
-4.0
 31
0.0
  0
LINE
  5
30E
330
233
100
AcDbEntity
  8
0
  6
Continuous
 62
     2
100
AcDbLine
 10
0.0
 20
-4.0
 30
0.0
 11
190.0
 21
-4.0
 31
0.0
  0
LINE
  5
30F
330
233
100
AcDbEntity
  8
0
  6
Continuous
 62
     2
100
AcDbLine
 10
170.0
 20
0.0
 30
0.0
 11
170.0
 21
-4.0
 31
0.0
  0
LINE
  5
310
330
233
100
AcDbEntity
  8
0
  6
Continuous
 62
     2
100
AcDbLine
 10
190.0
 20
0.0
 30
0.0
 11
190.0
 21
-4.0
 31
0.0
  0
MTEXT
  5
311
330
233
100
AcDbEntity
  8
0
  6
Continuous
 62
     5
100
AcDbMText
 10
1.399999999999999
 20
-1.1
 30
0.0
 40
1.8
 41
332.1
 71
     1
 72
     1
  1
  This drawing remains our property. Without written approval it may not be copied, reproduced, communicated or made available to third parties. 
  7
TEXTSTYLE_2
 73
     1
 44
0.9
1001
ACAD
1000
MTEXTBEGIN
1070
    73
1070
     1
1070
    44
1040
0.9
1070
    74
1070
     0
1000
MTEXTEND
  0
MTEXT
  5
312
330
233
100
AcDbEntity
  8
0
  6
Continuous
 62
     5
100
AcDbMText
 10
180.0
 20
-1.1
 30
0.0
 40
1.8
 41
26.8453125
 71
     2
 72
     1
  1
Sheet 1 of 1
  7
TEXTSTYLE_2
 73
     1
 44
0.9
1001
ACAD
1000
MTEXTBEGIN
1070
    73
1070
     1
1070
    44
1040
0.9
1070
    74
1070
     0
1000
MTEXTEND
  0
ENDBLK
  5
313
330
233
100
AcDbEntity
  8
0
  6
ByBlock
 62
     0
100
AcDbBlockEnd
  0
BLOCK
  5
314
330
234
100
AcDbEntity
  8
0
100
AcDbBlockBegin
  2
*T19
 70
     1
 10
0.0
 20
0.0
 30
0.0
  3
*T19
  1

  0
LINE
  5
315
330
234
100
AcDbEntity
  8
0
  6
Continuous
 62
     2
100
AcDbLine
 10
0.0
 20
0.0
 30
0.0
 11
40.0
 21
0.0
 31
0.0
  0
LINE
  5
316
330
234
100
AcDbEntity
  8
0
  6
Continuous
 62
     2
100
AcDbLine
 10
0.0
 20
0.0
 30
0.0
 11
0.0
 21
-10.5
 31
0.0
  0
LINE
  5
317
330
234
100
AcDbEntity
  8
0
  6
Continuous
 62
     2
100
AcDbLine
 10
0.0
 20
-10.5
 30
0.0
 11
40.0
 21
-10.5
 31
0.0
  0
LINE
  5
318
330
234
100
AcDbEntity
  8
0
  6
Continuous
 62
     2
100
AcDbLine
 10
40.0
 20
0.0
 30
0.0
 11
40.0
 21
-10.5
 31
0.0
  0
MTEXT
  5
319
330
234
100
AcDbEntity
  8
0
  6
Continuous
 62
     5
100
AcDbMText
 10
20.0
 20
-3.75
 30
0.0
 40
3.0
 41
36.65625
 71
     2
 72
     1
  1
Scale: 1:1
  7
TEXTSTYLE_2
 73
     1
 44
0.9
1001
ACAD
1000
MTEXTBEGIN
1070
    73
1070
     1
1070
    44
1040
0.9
1070
    74
1070
     0
1000
MTEXTEND
  0
ENDBLK
  5
31A
330
234
100
AcDbEntity
  8
0
  6
ByBlock
 62
     0
100
AcDbBlockEnd
  0
BLOCK
  5
31B
330
235
100
AcDbEntity
  8
0
100
AcDbBlockBegin
  2
*T20
 70
     1
 10
0.0
 20
0.0
 30
0.0
  3
*T20
  1

  0
LINE
  5
31C
330
235
100
AcDbEntity
  8
0
  6
Continuous
 62
     2
100
AcDbLine
 10
0.0
 20
0.0
 30
0.0
 11
25.0
 21
0.0
 31
0.0
  0
LINE
  5
31D
330
235
100
AcDbEntity
  8
0
  6
Continuous
 62
     2
100
AcDbLine
 10
0.0
 20
0.0
 30
0.0
 11
0.0
 21
-16.5
 31
0.0
  0
LINE
  5
31E
330
235
100
AcDbEntity
  8
0
  6
Continuous
 62
     2
100
AcDbLine
 10
0.0
 20
-16.5
 30
0.0
 11
25.0
 21
-16.5
 31
0.0
  0
LINE
  5
31F
330
235
100
AcDbEntity
  8
0
  6
Continuous
 62
     2
100
AcDbLine
 10
25.0
 20
0.0
 30
0.0
 11
25.0
 21
-16.5
 31
0.0
  0
ENDBLK
  5
320
330
235
100
AcDbEntity
  8
0
  6
ByBlock
 62
     0
100
AcDbBlockEnd
  0
BLOCK
  5
321
330
236
100
AcDbEntity
  8
0
100
AcDbBlockBegin
  2
*T21
 70
     1
 10
0.0
 20
0.0
 30
0.0
  3
*T21
  1

  0
LINE
  5
322
330
236
100
AcDbEntity
  8
0
  6
Continuous
 62
     2
100
AcDbLine
 10
0.0
 20
0.0
 30
0.0
 11
130.0
 21
0.0
 31
0.0
  0
LINE
  5
323
330
236
100
AcDbEntity
  8
0
  6
Continuous
 62
     2
100
AcDbLine
 10
0.0
 20
0.0
 30
0.0
 11
0.0
 21
-12.0
 31
0.0
  0
LINE
  5
324
330
236
100
AcDbEntity
  8
0
  6
Continuous
 62
     2
100
AcDbLine
 10
0.0
 20
-6.0
 30
0.0
 11
130.0
 21
-6.0
 31
0.0
  0
LINE
  5
325
330
236
100
AcDbEntity
  8
0
  6
Continuous
 62
     2
100
AcDbLine
 10
0.0
 20
-12.0
 30
0.0
 11
130.0
 21
-12.0
 31
0.0
  0
LINE
  5
326
330
236
100
AcDbEntity
  8
0
  6
Continuous
 62
     2
100
AcDbLine
 10
50.0
 20
0.0
 30
0.0
 11
50.0
 21
-12.0
 31
0.0
  0
LINE
  5
327
330
236
100
AcDbEntity
  8
0
  6
Continuous
 62
     2
100
AcDbLine
 10
66.0
 20
0.0
 30
0.0
 11
66.0
 21
-12.0
 31
0.0
  0
LINE
  5
328
330
236
100
AcDbEntity
  8
0
  6
Continuous
 62
     2
100
AcDbLine
 10
82.0
 20
0.0
 30
0.0
 11
82.0
 21
-12.0
 31
0.0
  0
LINE
  5
329
330
236
100
AcDbEntity
  8
0
  6
Continuous
 62
     2
100
AcDbLine
 10
98.0
 20
0.0
 30
0.0
 11
98.0
 21
-12.0
 31
0.0
  0
LINE
  5
32A
330
236
100
AcDbEntity
  8
0
  6
Continuous
 62
     2
100
AcDbLine
 10
114.0
 20
0.0
 30
0.0
 11
114.0
 21
-12.0
 31
0.0
  0
LINE
  5
32B
330
236
100
AcDbEntity
  8
0
  6
Continuous
 62
     2
100
AcDbLine
 10
130.0
 20
0.0
 30
0.0
 11
130.0
 21
-12.0
 31
0.0
  0
MTEXT
  5
32C
330
236
100
AcDbEntity
  8
0
  6
Continuous
 62
     5
100
AcDbMText
 10
0.0625
 20
-2.0
 30
0.0
 40
2.0
 41
87.359375
 71
     1
 72
     1
  1
 Shorter arm length of angle in mm
  7
TEXTSTYLE_2
 73
     1
 44
0.9
1001
ACAD
1000
MTEXTBEGIN
1070
    73
1070
     1
1070
    44
1040
0.9
1070
    74
1070
     0
1000
MTEXTEND
  0
MTEXT
  5
32D
330
236
100
AcDbEntity
  8
0
  6
Continuous
 62
     5
100
AcDbMText
 10
58.0
 20
-2.0
 30
0.0
 40
2.0
 41
14.578125
 71
     2
 72
     1
  1
0 - 10
  7
TEXTSTYLE_2
 73
     1
 44
0.9
1001
ACAD
1000
MTEXTBEGIN
1070
    73
1070
     1
1070
    44
1040
0.9
1070
    74
1070
     0
1000
MTEXTEND
  0
MTEXT
  5
32E
330
236
100
AcDbEntity
  8
0
  6
Continuous
 62
     5
100
AcDbMText
 10
74.0
 20
-2.0
 30
0.0
 40
2.0
 41
17.8125
 71
     2
 72
     1
  1
10 - 50
  7
TEXTSTYLE_2
 73
     1
 44
0.9
1001
ACAD
1000
MTEXTBEGIN
1070
    73
1070
     1
1070
    44
1040
0.9
1070
    74
1070
     0
1000
MTEXTEND
  0
MTEXT
  5
32F
330
236
100
AcDbEntity
  8
0
  6
Continuous
 62
     5
100
AcDbMText
 10
90.0
 20
-2.0
 30
0.0
 40
2.0
 41
21.046875
 71
     2
 72
     1
  1
50 - 120
  7
TEXTSTYLE_2
 73
     1
 44
0.9
1001
ACAD
1000
MTEXTBEGIN
1070
    73
1070
     1
1070
    44
1040
0.9
1070
    74
1070
     0
1000
MTEXTEND
  0
MTEXT
  5
330
330
236
100
AcDbEntity
  8
0
  6
Continuous
 62
     5
100
AcDbMText
 10
106.0
 20
-2.0
 30
0.0
 40
2.0
 41
24.28125
 71
     2
 72
     1
  1
120 - 400
  7
TEXTSTYLE_2
 73
     1
 44
0.9
1001
ACAD
1000
MTEXTBEGIN
1070
    73
1070
     1
1070
    44
1040
0.9
1070
    74
1070
     0
1000
MTEXTEND
  0
MTEXT
  5
331
330
236
100
AcDbEntity
  8
0
  6
Continuous
 62
     5
100
AcDbMText
 10
122.0
 20
-2.0
 30
0.0
 40
2.0
 41
27.515625
 71
     2
 72
     1
  1
400 - 1000
  7
TEXTSTYLE_2
 73
     1
 44
0.9
1001
ACAD
1000
MTEXTBEGIN
1070
    73
1070
     1
1070
    44
1040
0.9
1070
    74
1070
     0
1000
MTEXTEND
  0
MTEXT
  5
332
330
236
100
AcDbEntity
  8
0
  6
Continuous
 62
     5
100
AcDbMText
 10
0.0625
 20
-8.0
 30
0.0
 40
2.0
 41
93.390625
 71
     1
 72
     1
  1
 General tolerances ISO 2768-1 (fine)
  7
TEXTSTYLE_2
 73
     1
 44
0.9
1001
ACAD
1000
MTEXTBEGIN
1070
    73
1070
     1
1070
    44
1040
0.9
1070
    74
1070
     0
1000
MTEXTEND
  0
MTEXT
  5
333
330
236
100
AcDbEntity
  8
0
  6
Continuous
 62
     5
100
AcDbMText
 10
58.0
 20
-8.0
 30
0.0
 40
2.0
 41
10.5677083333
 71
     2
 72
     1
  1
{\Fgdt;`}\Ftxt;1\Fgdt;{\Fgdt;~}
  7
TEXTSTYLE_1
 73
     1
 44
0.9
1001
ACAD
1000
MTEXTBEGIN
1070
    73
1070
     1
1070
    44
1040
0.9
1070
    74
1070
     0
1000
MTEXTEND
  0
MTEXT
  5
334
330
236
100
AcDbEntity
  8
0
  6
Continuous
 62
     5
100
AcDbMText
 10
74.0
 20
-8.0
 30
0.0
 40
2.0
 41
15.4270833333
 71
     2
 72
     1
  1
{\Fgdt;`}\Ftxt;0.5\Fgdt;{\Fgdt;~}
  7
TEXTSTYLE_1
 73
     1
 44
0.9
1001
ACAD
1000
MTEXTBEGIN
1070
    73
1070
     1
1070
    44
1040
0.9
1070
    74
1070
     0
1000
MTEXTEND
  0
MTEXT
  5
335
330
236
100
AcDbEntity
  8
0
  6
Continuous
 62
     5
100
AcDbMText
 10
90.0
 20
-8.0
 30
0.0
 40
2.0
 41
21.8958333333
 71
     2
 72
     1
  1
{\Fgdt;`}\Ftxt;0.333\Fgdt;{\Fgdt;~}
  7
TEXTSTYLE_1
 73
     1
 44
0.9
1001
ACAD
1000
MTEXTBEGIN
1070
    73
1070
     1
1070
    44
1040
0.9
1070
    74
1070
     0
1000
MTEXTEND
  0
MTEXT
  5
336
330
236
100
AcDbEntity
  8
0
  6
Continuous
 62
     5
100
AcDbMText
 10
106.0
 20
-8.0
 30
0.0
 40
2.0
 41
21.8958333333
 71
     2
 72
     1
  1
{\Fgdt;`}\Ftxt;0.166\Fgdt;{\Fgdt;~}
  7
TEXTSTYLE_1
 73
     1
 44
0.9
1001
ACAD
1000
MTEXTBEGIN
1070
    73
1070
     1
1070
    44
1040
0.9
1070
    74
1070
     0
1000
MTEXTEND
  0
MTEXT
  5
337
330
236
100
AcDbEntity
  8
0
  6
Continuous
 62
     5
100
AcDbMText
 10
122.0
 20
-8.0
 30
0.0
 40
2.0
 41
21.8958333333
 71
     2
 72
     1
  1
{\Fgdt;`}\Ftxt;0.083\Fgdt;{\Fgdt;~}
  7
TEXTSTYLE_1
 73
     1
 44
0.9
1001
ACAD
1000
MTEXTBEGIN
1070
    73
1070
     1
1070
    44
1040
0.9
1070
    74
1070
     0
1000
MTEXTEND
  0
ENDBLK
  5
338
330
236
100
AcDbEntity
  8
0
  6
ByBlock
 62
     0
100
AcDbBlockEnd
  0
BLOCK
  5
339
330
237
100
AcDbEntity
  8
0
100
AcDbBlockBegin
  2
*T22
 70
     1
 10
0.0
 20
0.0
 30
0.0
  3
*T22
  1

  0
LINE
  5
33A
330
237
100
AcDbEntity
  8
0
  6
Continuous
 62
     2
100
AcDbLine
 10
0.0
 20
0.0
 30
0.0
 11
183.002
 21
0.0
 31
0.0
  0
LINE
  5
33B
330
237
100
AcDbEntity
  8
0
  6
Continuous
 62
     2
100
AcDbLine
 10
0.0
 20
0.0
 30
0.0
 11
0.0
 21
-12.0
 31
0.0
  0
LINE
  5
33C
330
237
100
AcDbEntity
  8
0
  6
Continuous
 62
     2
100
AcDbLine
 10
0.0
 20
-6.0
 30
0.0
 11
183.002
 21
-6.0
 31
0.0
  0
LINE
  5
33D
330
237
100
AcDbEntity
  8
0
  6
Continuous
 62
     2
100
AcDbLine
 10
0.0
 20
-12.0
 30
0.0
 11
183.002
 21
-12.0
 31
0.0
  0
LINE
  5
33E
330
237
100
AcDbEntity
  8
0
  6
Continuous
 62
     2
100
AcDbLine
 10
50.0
 20
0.0
 30
0.0
 11
50.0
 21
-12.0
 31
0.0
  0
LINE
  5
33F
330
237
100
AcDbEntity
  8
0
  6
Continuous
 62
     2
100
AcDbLine
 10
72.2
 20
0.0
 30
0.0
 11
72.2
 21
-12.0
 31
0.0
  0
LINE
  5
340
330
237
100
AcDbEntity
  8
0
  6
Continuous
 62
     2
100
AcDbLine
 10
94.40000000000001
 20
0.0
 30
0.0
 11
94.40000000000001
 21
-12.0
 31
0.0
  0
LINE
  5
341
330
237
100
AcDbEntity
  8
0
  6
Continuous
 62
     2
100
AcDbLine
 10
116.6
 20
0.0
 30
0.0
 11
116.6
 21
-12.0
 31
0.0
  0
LINE
  5
342
330
237
100
AcDbEntity
  8
0
  6
Continuous
 62
     2
100
AcDbLine
 10
138.8
 20
0.0
 30
0.0
 11
138.8
 21
-12.0
 31
0.0
  0
LINE
  5
343
330
237
100
AcDbEntity
  8
0
  6
Continuous
 62
     2
100
AcDbLine
 10
161.0
 20
0.0
 30
0.0
 11
161.0
 21
-12.0
 31
0.0
  0
LINE
  5
344
330
237
100
AcDbEntity
  8
0
  6
Continuous
 62
     2
100
AcDbLine
 10
183.002
 20
0.0
 30
0.0
 11
183.002
 21
-12.0
 31
0.0
  0
MTEXT
  5
345
330
237
100
AcDbEntity
  8
0
  6
Continuous
 62
     5
100
AcDbMText
 10
1.399999999999999
 20
-2.0
 30
0.0
 40
2.0
 41
67.609375
 71
     1
 72
     1
  1
Nominal dimension in mm
  7
TEXTSTYLE_2
 73
     1
 44
0.9
1001
ACAD
1000
MTEXTBEGIN
1070
    73
1070
     1
1070
    44
1040
0.9
1070
    74
1070
     0
1000
MTEXTEND
  0
MTEXT
  5
346
330
237
100
AcDbEntity
  8
0
  6
Continuous
 62
     5
100
AcDbMText
 10
61.1
 20
-2.0
 30
0.0
 40
2.0
 41
16.203125
 71
     2
 72
     1
  1
0.5 - 3
  7
TEXTSTYLE_2
 73
     1
 44
0.9
1001
ACAD
1000
MTEXTBEGIN
1070
    73
1070
     1
1070
    44
1040
0.9
1070
    74
1070
     0
1000
MTEXTEND
  0
MTEXT
  5
347
330
237
100
AcDbEntity
  8
0
  6
Continuous
 62
     5
100
AcDbMText
 10
83.3
 20
-2.0
 30
0.0
 40
2.0
 41
11.34375
 71
     2
 72
     1
  1
3 - 6
  7
TEXTSTYLE_2
 73
     1
 44
0.9
1001
ACAD
1000
MTEXTBEGIN
1070
    73
1070
     1
1070
    44
1040
0.9
1070
    74
1070
     0
1000
MTEXTEND
  0
MTEXT
  5
348
330
237
100
AcDbEntity
  8
0
  6
Continuous
 62
     5
100
AcDbMText
 10
105.5
 20
-2.0
 30
0.0
 40
2.0
 41
14.578125
 71
     2
 72
     1
  1
6 - 30
  7
TEXTSTYLE_2
 73
     1
 44
0.9
1001
ACAD
1000
MTEXTBEGIN
1070
    73
1070
     1
1070
    44
1040
0.9
1070
    74
1070
     0
1000
MTEXTEND
  0
MTEXT
  5
349
330
237
100
AcDbEntity
  8
0
  6
Continuous
 62
     5
100
AcDbMText
 10
127.7
 20
-2.0
 30
0.0
 40
2.0
 41
21.046875
 71
     2
 72
     1
  1
30 - 120
  7
TEXTSTYLE_2
 73
     1
 44
0.9
1001
ACAD
1000
MTEXTBEGIN
1070
    73
1070
     1
1070
    44
1040
0.9
1070
    74
1070
     0
1000
MTEXTEND
  0
MTEXT
  5
34A
330
237
100
AcDbEntity
  8
0
  6
Continuous
 62
     5
100
AcDbMText
 10
149.9
 20
-2.0
 30
0.0
 40
2.0
 41
24.28125
 71
     2
 72
     1
  1
120 - 400
  7
TEXTSTYLE_2
 73
     1
 44
0.9
1001
ACAD
1000
MTEXTBEGIN
1070
    73
1070
     1
1070
    44
1040
0.9
1070
    74
1070
     0
1000
MTEXTEND
  0
MTEXT
  5
34B
330
237
100
AcDbEntity
  8
0
  6
Continuous
 62
     5
100
AcDbMText
 10
172.001
 20
-2.0
 30
0.0
 40
2.0
 41
27.515625
 71
     2
 72
     1
  1
400 - 1000
  7
TEXTSTYLE_2
 73
     1
 44
0.9
1001
ACAD
1000
MTEXTBEGIN
1070
    73
1070
     1
1070
    44
1040
0.9
1070
    74
1070
     0
1000
MTEXTEND
  0
MTEXT
  5
34C
330
237
100
AcDbEntity
  8
0
  6
Continuous
 62
     5
100
AcDbMText
 10
1.399999999999999
 20
-8.0
 30
0.0
 40
2.0
 41
91.76562500000001
 71
     1
 72
     1
  1
General tolerances ISO 2768-1 (fine)
  7
TEXTSTYLE_2
 73
     1
 44
0.9
1001
ACAD
1000
MTEXTBEGIN
1070
    73
1070
     1
1070
    44
1040
0.9
1070
    74
1070
     0
1000
MTEXTEND
  0
MTEXT
  5
34D
330
237
100
AcDbEntity
  8
0
  6
Continuous
 62
     5
100
AcDbMText
 10
61.1
 20
-8.0
 30
0.0
 40
2.0
 41
15.9947916667
 71
     2
 72
     1
  1
{\Fgdt;`}\Ftxt;0.05
  7
TEXTSTYLE_1
 73
     1
 44
0.9
1001
ACAD
1000
MTEXTBEGIN
1070
    73
1070
     1
1070
    44
1040
0.9
1070
    74
1070
     0
1000
MTEXTEND
  0
MTEXT
  5
34E
330
237
100
AcDbEntity
  8
0
  6
Continuous
 62
     5
100
AcDbMText
 10
83.3
 20
-7.75
 30
0.0
 40
2.0
 41
15.9947916667
 71
     2
 72
     1
  1
{\Fgdt;`}\Ftxt;0.05
  7
TEXTSTYLE_1
 73
     1
 44
0.9
1001
ACAD
1000
MTEXTBEGIN
1070
    73
1070
     1
1070
    44
1040
0.9
1070
    74
1070
     0
1000
MTEXTEND
  0
MTEXT
  5
34F
330
237
100
AcDbEntity
  8
0
  6
Continuous
 62
     5
100
AcDbMText
 10
105.5
 20
-7.75
 30
0.0
 40
2.0
 41
12.7604166667
 71
     2
 72
     1
  1
{\Fgdt;`}\Ftxt;0.1
  7
TEXTSTYLE_1
 73
     1
 44
0.9
1001
ACAD
1000
MTEXTBEGIN
1070
    73
1070
     1
1070
    44
1040
0.9
1070
    74
1070
     0
1000
MTEXTEND
  0
MTEXT
  5
350
330
237
100
AcDbEntity
  8
0
  6
Continuous
 62
     5
100
AcDbMText
 10
127.7
 20
-7.75
 30
0.0
 40
2.0
 41
15.9947916667
 71
     2
 72
     1
  1
{\Fgdt;`}\Ftxt;0.15
  7
TEXTSTYLE_1
 73
     1
 44
0.9
1001
ACAD
1000
MTEXTBEGIN
1070
    73
1070
     1
1070
    44
1040
0.9
1070
    74
1070
     0
1000
MTEXTEND
  0
MTEXT
  5
351
330
237
100
AcDbEntity
  8
0
  6
Continuous
 62
     5
100
AcDbMText
 10
149.9
 20
-7.75
 30
0.0
 40
2.0
 41
12.7604166667
 71
     2
 72
     1
  1
{\Fgdt;`}\Ftxt;0.2
  7
TEXTSTYLE_1
 73
     1
 44
0.9
1001
ACAD
1000
MTEXTBEGIN
1070
    73
1070
     1
1070
    44
1040
0.9
1070
    74
1070
     0
1000
MTEXTEND
  0
MTEXT
  5
352
330
237
100
AcDbEntity
  8
0
  6
Continuous
 62
     5
100
AcDbMText
 10
172.001
 20
-7.75
 30
0.0
 40
2.0
 41
12.7604166667
 71
     2
 72
     1
  1
{\Fgdt;`}\Ftxt;0.3
  7
TEXTSTYLE_1
 73
     1
 44
0.9
1001
ACAD
1000
MTEXTBEGIN
1070
    73
1070
     1
1070
    44
1040
0.9
1070
    74
1070
     0
1000
MTEXTEND
  0
ENDBLK
  5
353
330
237
100
AcDbEntity
  8
0
  6
ByBlock
 62
     0
100
AcDbBlockEnd
  0
BLOCK
  5
354
330
238
100
AcDbEntity
  8
0
100
AcDbBlockBegin
  2
*T23
 70
     1
 10
0.0
 20
0.0
 30
0.0
  3
*T23
  1

  0
MTEXT
  5
359
330
238
100
AcDbEntity
  8
0
  6
Continuous
 62
     5
100
AcDbMText
 10
0.0600000000000023
 20
-5.0
 30
0.0
 40
3.0
 41
149.88
 71
     4
 72
     1
  1
Motor :- P760 124 0.4 X - # 7011903659\PEncoder :- HP HEDS 5540 A14 - # 1061000038
 73
     1
 44
0.9
1001
ACAD
1000
MTEXTBEGIN
1070
    73
1070
     1
1070
    44
1040
0.9
1070
    74
1070
     0
1000
MTEXTEND
  0
LINE
  5
355
330
238
100
AcDbEntity
  8
0
  6
ByBlock
 62
     0
370
    -2
100
AcDbLine
 10
0.0
 20
0.0
 30
0.0
 11
150.0
 21
0.0
 31
0.0
  0
LINE
  5
356
330
238
100
AcDbEntity
  8
0
  6
ByBlock
 62
     0
370
    -2
100
AcDbLine
 10
0.0
 20
-10.0
 30
0.0
 11
150.0
 21
-10.0
 31
0.0
  0
LINE
  5
357
330
238
100
AcDbEntity
  8
0
  6
ByBlock
 62
     0
370
    -2
100
AcDbLine
 10
0.0
 20
0.0
 30
0.0
 11
0.0
 21
-10.0
 31
0.0
  0
LINE
  5
358
330
238
100
AcDbEntity
  8
0
  6
ByBlock
 62
     0
370
    -2
100
AcDbLine
 10
150.0
 20
0.0
 30
0.0
 11
150.0
 21
-10.0
 31
0.0
  0
LINE
  5
8D6
330
238
100
AcDbEntity
  8
Defpoints
 62
     8
 60
     1
370
     0
100
AcDbLine
 10
0.0
 20
0.0
 30
0.0
 11
0.0
 21
0.0
 31
0.0
  0
ENDBLK
  5
35A
330
238
100
AcDbEntity
  8
0
  6
ByBlock
 62
     0
100
AcDbBlockEnd
  0
BLOCK
  5
35B
330
239
100
AcDbEntity
  8
0
100
AcDbBlockBegin
  2
*T24
 70
     1
 10
0.0
 20
0.0
 30
0.0
  3
*T24
  1

  0
LINE
  5
35C
330
239
100
AcDbEntity
  8
0
  6
Continuous
 62
     2
100
AcDbLine
 10
0.0
 20
0.0
 30
0.0
 11
53.0
 21
0.0
 31
0.0
  0
LINE
  5
35D
330
239
100
AcDbEntity
  8
0
  6
Continuous
 62
     2
100
AcDbLine
 10
0.0
 20
0.0
 30
0.0
 11
0.0
 21
-12.0
 31
0.0
  0
LINE
  5
35E
330
239
100
AcDbEntity
  8
0
  6
Continuous
 62
     2
100
AcDbLine
 10
0.0
 20
-4.0
 30
0.0
 11
53.0
 21
-4.0
 31
0.0
  0
LINE
  5
35F
330
239
100
AcDbEntity
  8
0
  6
Continuous
 62
     2
100
AcDbLine
 10
0.0
 20
-8.0
 30
0.0
 11
53.0
 21
-8.0
 31
0.0
  0
LINE
  5
360
330
239
100
AcDbEntity
  8
0
  6
Continuous
 62
     2
100
AcDbLine
 10
0.0
 20
-12.0
 30
0.0
 11
53.0
 21
-12.0
 31
0.0
  0
LINE
  5
361
330
239
100
AcDbEntity
  8
0
  6
Continuous
 62
     2
100
AcDbLine
 10
53.0
 20
0.0
 30
0.0
 11
53.0
 21
-12.0
 31
0.0
  0
MTEXT
  5
362
330
239
100
AcDbEntity
  8
0
  6
Continuous
 62
     5
100
AcDbMText
 10
1.399999999999999
 20
-1.0
 30
0.0
 40
2.0
 41
88.078125
 71
     1
 72
     1
  1
      ....Horizontal CTQ Dimensions
  7
TEXTSTYLE_2
 73
     1
 44
0.9
1001
ACAD
1000
MTEXTBEGIN
1070
    73
1070
     1
1070
    44
1040
0.9
1070
    74
1070
     0
1000
MTEXTEND
  0
MTEXT
  5
363
330
239
100
AcDbEntity
  8
0
  6
Continuous
 62
     5
100
AcDbMText
 10
1.399999999999999
 20
-5.0
 30
0.0
 40
2.0
 41
80.546875
 71
     1
 72
     1
  1
      ....Vertical CTQ Dimensions
  7
TEXTSTYLE_2
 73
     1
 44
0.9
1001
ACAD
1000
MTEXTBEGIN
1070
    73
1070
     1
1070
    44
1040
0.9
1070
    74
1070
     0
1000
MTEXTEND
  0
MTEXT
  5
364
330
239
100
AcDbEntity
  8
0
  6
Continuous
 62
     5
100
AcDbMText
 10
1.399999999999999
 20
-9.0
 30
0.0
 40
2.0
 41
71.28125
 71
     1
 72
     1
  1
      ....GD  & Other Features
  7
TEXTSTYLE_2
 73
     1
 44
0.9
1001
ACAD
1000
MTEXTBEGIN
1070
    73
1070
     1
1070
    44
1040
0.9
1070
    74
1070
     0
1000
MTEXTEND
  0
ENDBLK
  5
365
330
239
100
AcDbEntity
  8
0
  6
ByBlock
 62
     0
100
AcDbBlockEnd
  0
BLOCK
  5
366
330
23A
100
AcDbEntity
  8
0
100
AcDbBlockBegin
  2
*T25
 70
     1
 10
0.0
 20
0.0
 30
0.0
  3
*T25
  1

  0
LINE
  5
367
330
23A
100
AcDbEntity
  8
0
  6
Continuous
 62
     2
100
AcDbLine
 10
0.0
 20
0.0
 30
0.0
 11
3.799999999999998
 21
0.0
 31
0.0
  0
LINE
  5
368
330
23A
100
AcDbEntity
  8
0
  6
Continuous
 62
     2
100
AcDbLine
 10
0.0
 20
0.0
 30
0.0
 11
0.0
 21
-3.6
 31
0.0
  0
LINE
  5
369
330
23A
100
AcDbEntity
  8
0
  6
Continuous
 62
     2
100
AcDbLine
 10
0.0
 20
-3.6
 30
0.0
 11
3.799999999999998
 21
-3.6
 31
0.0
  0
LINE
  5
36A
330
23A
100
AcDbEntity
  8
0
  6
Continuous
 62
     2
100
AcDbLine
 10
3.799999999999998
 20
0.0
 30
0.0
 11
3.799999999999998
 21
-3.6
 31
0.0
  0
MTEXT
  5
36B
330
23A
100
AcDbEntity
  8
0
  6
Continuous
 62
     5
100
AcDbMText
 10
1.9
 20
-0.8
 30
0.0
 40
2.0
 41
7.765625
 71
     2
 72
     1
  1
H1
  7
TEXTSTYLE_2
 73
     1
 44
0.9
1001
ACAD
1000
MTEXTBEGIN
1070
    73
1070
     1
1070
    44
1040
0.9
1070
    74
1070
     0
1000
MTEXTEND
  0
ENDBLK
  5
36C
330
23A
100
AcDbEntity
  8
0
  6
ByBlock
 62
     0
100
AcDbBlockEnd
  0
BLOCK
  5
36D
330
23B
100
AcDbEntity
  8
0
100
AcDbBlockBegin
  2
*T26
 70
     1
 10
0.0
 20
0.0
 30
0.0
  3
*T26
  1

  0
LINE
  5
36E
330
23B
100
AcDbEntity
  8
0
  6
Continuous
 62
     2
100
AcDbLine
 10
0.0
 20
0.0
 30
0.0
 11
3.799999999999998
 21
0.0
 31
0.0
  0
LINE
  5
36F
330
23B
100
AcDbEntity
  8
0
  6
Continuous
 62
     2
100
AcDbLine
 10
0.0
 20
0.0
 30
0.0
 11
0.0
 21
-3.6
 31
0.0
  0
LINE
  5
370
330
23B
100
AcDbEntity
  8
0
  6
Continuous
 62
     2
100
AcDbLine
 10
0.0
 20
-3.6
 30
0.0
 11
3.799999999999998
 21
-3.6
 31
0.0
  0
LINE
  5
371
330
23B
100
AcDbEntity
  8
0
  6
Continuous
 62
     2
100
AcDbLine
 10
3.799999999999998
 20
0.0
 30
0.0
 11
3.799999999999998
 21
-3.6
 31
0.0
  0
MTEXT
  5
372
330
23B
100
AcDbEntity
  8
0
  6
Continuous
 62
     5
100
AcDbMText
 10
1.9
 20
-0.8
 30
0.0
 40
2.0
 41
7.125
 71
     2
 72
     1
  1
V1
  7
TEXTSTYLE_2
 73
     1
 44
0.9
1001
ACAD
1000
MTEXTBEGIN
1070
    73
1070
     1
1070
    44
1040
0.9
1070
    74
1070
     0
1000
MTEXTEND
  0
ENDBLK
  5
373
330
23B
100
AcDbEntity
  8
0
  6
ByBlock
 62
     0
100
AcDbBlockEnd
  0
BLOCK
  5
374
330
23C
100
AcDbEntity
  8
0
100
AcDbBlockBegin
  2
*T27
 70
     1
 10
0.0
 20
0.0
 30
0.0
  3
*T27
  1

  0
LINE
  5
375
330
23C
100
AcDbEntity
  8
0
  6
Continuous
 62
     2
100
AcDbLine
 10
0.0
 20
0.0
 30
0.0
 11
3.799999999999998
 21
0.0
 31
0.0
  0
LINE
  5
376
330
23C
100
AcDbEntity
  8
0
  6
Continuous
 62
     2
100
AcDbLine
 10
0.0
 20
0.0
 30
0.0
 11
0.0
 21
-3.6
 31
0.0
  0
LINE
  5
377
330
23C
100
AcDbEntity
  8
0
  6
Continuous
 62
     2
100
AcDbLine
 10
0.0
 20
-3.6
 30
0.0
 11
3.799999999999998
 21
-3.6
 31
0.0
  0
LINE
  5
378
330
23C
100
AcDbEntity
  8
0
  6
Continuous
 62
     2
100
AcDbLine
 10
3.799999999999998
 20
0.0
 30
0.0
 11
3.799999999999998
 21
-3.6
 31
0.0
  0
MTEXT
  5
379
330
23C
100
AcDbEntity
  8
0
  6
Continuous
 62
     5
100
AcDbMText
 10
1.9
 20
-0.8
 30
0.0
 40
2.0
 41
6.15625
 71
     2
 72
     1
  1
S1
  7
TEXTSTYLE_2
 73
     1
 44
0.9
1001
ACAD
1000
MTEXTBEGIN
1070
    73
1070
     1
1070
    44
1040
0.9
1070
    74
1070
     0
1000
MTEXTEND
  0
ENDBLK
  5
37A
330
23C
100
AcDbEntity
  8
0
  6
ByBlock
 62
     0
100
AcDbBlockEnd
  0
BLOCK
  5
817
330
816
100
AcDbEntity
  8
0
100
AcDbBlockBegin
  2
*D28
 70
     1
 10
0.0
 20
0.0
 30
0.0
  3
*D28
  1

  0
LINE
  5
824
330
816
100
AcDbEntity
  8
0
 62
     0
370
    -2
100
AcDbLine
 10
189.4407683484999
 20
221.7604754209276
 30
0.0
 11
189.4407683484999
 21
241.0310405177387
 31
0.0
  0
LINE
  5
825
330
816
100
AcDbEntity
  8
0
 62
     0
370
    -2
100
AcDbLine
 10
245.4407683485
 20
222.1956985638013
 30
0.0
 11
245.4407683485
 21
241.0310405177387
 31
0.0
  0
LINE
  5
826
330
816
100
AcDbEntity
  8
0
 62
     0
370
    -2
100
AcDbLine
 10
192.4407683484999
 20
239.4310405177387
 30
0.0
 11
207.1837683485
 21
239.4310405177387
 31
0.0
  0
LINE
  5
827
330
816
100
AcDbEntity
  8
0
 62
     0
370
    -2
100
AcDbLine
 10
242.4407683485
 20
239.4310405177387
 30
0.0
 11
227.6977683485
 21
239.4310405177387
 31
0.0
  0
INSERT
  5
828
330
816
100
AcDbEntity
  8
0
 62
     0
370
    -2
100
AcDbBlockReference
  2
_FILLED
 10
189.4407683484999
 20
239.4310405177387
 30
0.0
 41
3.0
 42
3.0
 43
3.0
 50
180.0
  0
INSERT
  5
829
330
816
100
AcDbEntity
  8
0
 62
     0
370
    -2
100
AcDbBlockReference
  2
_FILLED
 10
245.4407683485
 20
239.4310405177387
 30
0.0
 41
3.0
 42
3.0
 43
3.0
  0
MTEXT
  5
82A
330
816
100
AcDbEntity
  8
0
 62
     0
100
AcDbMText
 10
217.4407683485
 20
239.4310405177387
 30
0.0
 40
2.799999999999998
 41
0.0
 71
     5
 72
     1
  1
\A1;56.0000±0.0100
 73
     1
 44
1.0
1001
ACAD
1000
MTEXTBEGIN
1070
    73
1070
     1
1070
    44
1040
1.0
1070
    74
1070
     0
1000
MTEXTEND
  0
POINT
  5
82B
330
816
100
AcDbEntity
  8
Defpoints
 62
     0
100
AcDbPoint
 10
189.4407683484999
 20
221.2604754209276
 30
0.0
  0
POINT
  5
82C
330
816
100
AcDbEntity
  8
Defpoints
 62
     0
100
AcDbPoint
 10
245.4407683485
 20
221.6956985638013
 30
0.0
  0
POINT
  5
82D
330
816
100
AcDbEntity
  8
Defpoints
 62
     0
100
AcDbPoint
 10
245.4407683485
 20
239.4310405177387
 30
0.0
  0
ENDBLK
  5
818
330
816
100
AcDbEntity
  8
0
100
AcDbBlockEnd
  0
ENDSEC
  0
SECTION
  2
ENTITIES
  0
DIMENSION
  5
37D
330
21F
100
AcDbEntity
  8
0
  6
Continuous
 62
     2
100
AcDbDimension
  2
*D1
 10
389.3882126695
 20
203.0534451146
 30
0.0
 11
389.3882126695
 21
182.053445946
 31
0.0
 70
   160
  1
<> max.
 71
     2
 42
41.19999999999999
  3
DIMSTYLE_1
100
AcDbAlignedDimension
 13
357.6935639089
 23
161.8534451146
 33
0.0
 14
344.6935639089
 24
203.0534451146
 34
0.0
 50
90.0
100
AcDbRotatedDimension
  0
DIMENSION
  5
37E
330
21F
100
AcDbEntity
  8
0
  6
Continuous
 62
     2
100
AcDbDimension
  2
*D2
 10
359.6935639089
 20
144.6276609722
 30
0.0
 11
366.1935639089
 21
144.6276609722
 31
0.0
 70
   160
  1
(<>)
 71
     5
 42
30.0
  3
DIMSTYLE_2
100
AcDbAlignedDimension
 13
329.6935639089
 23
163.8534451146
 33
0.0
 14
359.6935639089
 24
163.8534451146
 34
0.0
 50
360.0
100
AcDbRotatedDimension
  0
DIMENSION
  5
37F
330
21F
100
AcDbEntity
  8
0
  6
Continuous
 62
     2
100
AcDbDimension
  2
*D3
 10
189.4407683484999
 20
144.1877091644
 30
0.0
 11
179.8907693481
 21
144.1877091644
 31
0.0
 70
   160
  1
<> max.
 71
     2
 42
18.2999999999999
  3
DIMSTYLE_2
100
AcDbAlignedDimension
 13
171.1407683485
 23
163.8534451146
 33
0.0
 14
189.4407683484999
 24
151.5534489894
 34
0.0
100
AcDbRotatedDimension
  0
DIMENSION
  5
380
330
21F
100
AcDbEntity
  8
0
  6
Continuous
 62
     2
100
AcDbDimension
  2
*D4
 10
245.4407683485
 20
231.9347194561
 30
0.0
 11
217.0407678223
 21
231.9347194561
 31
0.0
 70
   160
  1
<>%%P0.5
 71
     2
 42
56.00000000000004
  3
DIMSTYLE_1
100
AcDbAlignedDimension
 13
189.4407683484999
 23
224.5301199973
 33
0.0
 14
245.4407683485
 24
224.5301199857
 34
0.0
100
AcDbRotatedDimension
  0
DIMENSION
  5
381
330
21F
100
AcDbEntity
  8
0
  6
Continuous
 62
     2
100
AcDbDimension
  2
*D5
 10
217.7774354823
 20
122.3493436796
 30
0.0
 11
217.7774354823
 21
136.7013943971
 31
0.0
 70
   160
  1
500{\H0.71429x;%%P15}
 71
     2
 42
28.70410143499999
  3
DIMSTYLE_3
100
AcDbAlignedDimension
 13
232.1407683485
 23
151.0534451146
 33
0.0
 14
232.1407683485
 24
122.3493436796
 34
0.0
 50
270.0
100
AcDbRotatedDimension
  0
DIMENSION
  5
382
330
21F
100
AcDbEntity
  8
0
  6
Continuous
 62
     2
100
AcDbDimension
  2
*D6
 10
274.164882686
 20
185.5534451146
 30
0.0
 11
274.164882686
 21
203.0284451146
 31
0.0
 70
   160
  1
%%c<>
 71
     5
 42
5.0
  3
DIMSTYLE_4
100
AcDbAlignedDimension
 13
263.3370725002
 23
190.5534451146
 33
0.0
 14
263.4511254534
 24
185.5534451146
 34
0.0
 50
270.0
100
AcDbRotatedDimension
  0
DIMENSION
  5
383
330
21F
100
AcDbEntity
  8
0
  6
Continuous
 62
     2
100
AcDbDimension
  2
*D7
 10
245.4407683485
 20
160.3222832577
 30
0.0
 11
255.4407683485
 21
160.3222832577
 31
0.0
 70
   160
  1
<>
 71
     2
 42
20.00000000000003
  3
DIMSTYLE_5
100
AcDbAlignedDimension
 13
265.4407683485
 23
185.5534451146
 33
0.0
 14
245.4407683485
 24
185.5534451146
 34
0.0
 50
180.0
100
AcDbRotatedDimension
  0
DIMENSION
  5
386
330
21F
100
AcDbEntity
  8
0
  6
Continuous
 62
     2
100
AcDbDimension
  2
*D10
 10
131.4526985802225
 20
160.8067862774964
 30
0.0
 11
79.86747595160004
 21
227.9842313344001
 31
0.0
 70
   163
  1
%%c<>
 71
     3
 42
64.99999999997682
  3
DIMSTYLE_8
100
AcDbDiametricDimension
 15
96.0199689525773
 25
215.3001039516038
 35
0.0
 40
0.0
1001
ACAD
1000
DSTYLE
1002
{
1070
    73
1070
     1
1070
    74
1070
     1
1002
}
  0
DIMENSION
  5
387
330
21F
100
AcDbEntity
  8
0
  6
Continuous
 62
     2
100
AcDbDimension
  2
*D11
 10
247.9407683485
 20
217.5484529945
 30
0.0
 11
259.1907683485
 21
217.5484529945
 31
0.0
 70
   160
 71
     5
 42
2.5
  3
DIMSTYLE_9
100
AcDbAlignedDimension
 13
245.4407683485
 23
208.0534451146
 33
0.0
 14
247.9407683485
 24
208.0534451146
 34
0.0
100
AcDbRotatedDimension
  0
DIMENSION
  5
388
102
{ACAD_XDICTIONARY
360
968
102
}
330
21F
100
AcDbEntity
  8
0
  6
Continuous
 62
     2
100
AcDbDimension
  2
*D12
 10
284.2216532946001
 20
208.0534451146
 30
0.0
 11
284.2216532946
 21
191.5975222238
 31
0.0
 70
   160
  1
%%c<>
 71
     2
 42
40.0
  3
DIMSTYLE_10
100
AcDbAlignedDimension
 13
247.9407683485
 23
168.0534451146
 33
0.0
 14
247.9407683485
 24
208.0534451146
 34
0.0
 50
90.0
100
AcDbRotatedDimension
  0
MTEXT
  5
397
330
21F
100
AcDbEntity
  8
0
  6
Continuous
 62
     5
100
AcDbMText
 10
199.6068755199
 20
195.9621870297
 30
0.0
 40
2.799999999999998
 41
49.0
 71
     1
 72
     1
  1
{\C3;Portescap\PMotor Description\PDate Code MM YY\PMade in India}
 73
     1
 44
0.9
1001
ACAD
1000
MTEXTBEGIN
1070
    73
1070
     1
1070
    44
1040
0.9
1070
    74
1070
     0
1000
MTEXTEND
  0
LINE
  5
39F
330
21F
100
AcDbEntity
  8
0
  6
Continuous
 62
   255
100
AcDbLine
 10
170.7407683485
 20
190.6388735734999
 30
0.0
 11
170.7407683485
 21
192.1545097762
 31
0.0
  0
LINE
  5
3A0
330
21F
100
AcDbEntity
  8
0
  6
Continuous
 62
   255
100
AcDbLine
 10
170.7407683485
 20
193.3081846301
 30
0.0
 11
170.7407683485
 21
194.2081846301
 31
0.0
  0
LINE
  5
3A1
330
21F
100
AcDbEntity
  8
0
  6
Continuous
 62
   255
100
AcDbLine
 10
171.1407683485
 20
161.8534451146
 30
0.0
 11
171.1407683485
 21
203.0534451146
 31
0.0
  0
LINE
  5
3A2
330
21F
100
AcDbEntity
  8
02___PRT_ALL_AXES
  6
Continuous
 62
   255
100
AcDbLine
 10
189.5657702899
 20
224.6784431679
 30
0.0
 11
189.4407683484999
 21
224.5301199973
 31
0.0
  0
LINE
  5
3A3
330
21F
100
AcDbEntity
  8
0
  6
Continuous
 62
   255
100
AcDbLine
 10
189.5657702908
 20
224.6784431688
 30
0.0
 11
189.9407703123
 21
225.0534431505
 31
0.0
  0
LINE
  5
3A4
330
21F
100
AcDbEntity
  8
0
  6
Continuous
 62
   255
100
AcDbLine
 10
173.2407683485
 20
192.564031902
 30
0.0
 11
173.2407683485
 21
200.4715964283
 31
0.0
  0
LINE
  5
3A5
330
21F
100
AcDbEntity
  8
0
  6
Continuous
 62
   255
100
AcDbLine
 10
174.2407683485
 20
192.564031902
 30
0.0
 11
174.2407683485
 21
201.3586071779
 31
0.0
  0
LINE
  5
3A6
330
21F
100
AcDbEntity
  8
0
  6
Continuous
 62
     2
100
AcDbLine
 10
201.1157683485
 20
137.1432248577
 30
0.0
 11
202.3657683485
 21
137.1432248577
 31
0.0
  0
LINE
  5
3A7
330
21F
100
AcDbEntity
  8
0
  6
Continuous
 62
     2
100
AcDbLine
 10
231.4407683485
 20
137.1432248577
 30
0.0
 11
232.8407683485
 21
137.1432248577
 31
0.0
  0
LINE
  5
3A8
330
21F
100
AcDbEntity
  8
0
  6
Continuous
 62
   255
100
AcDbLine
 10
189.4407702858
 20
151.5534470521
 30
0.0
 11
189.9407703123
 21
151.0534470787
 31
0.0
  0
LINE
  5
3A9
330
21F
100
AcDbEntity
  8
0
  6
Continuous
 62
   255
100
AcDbLine
 10
184.0207683484999
 20
158.4534451146
 30
0.0
 11
184.0207683484999
 21
161.8534451146
 31
0.0
  0
LINE
  5
3AA
330
21F
100
AcDbEntity
  8
0
  6
Continuous
 62
   255
100
AcDbLine
 10
187.4407686223
 20
203.0534448552
 30
0.0
 11
187.3407683469
 21
202.9534445798
 31
0.0
  0
LINE
  5
3AB
330
21F
100
AcDbEntity
  8
0
  6
Continuous
 62
   255
100
AcDbLine
 10
187.3407683485
 20
161.9534451146
 30
0.0
 11
187.4407683485
 21
161.8534451146
 31
0.0
  0
LINE
  5
3AC
330
21F
100
AcDbEntity
  8
0
  6
Continuous
 62
   255
100
AcDbLine
 10
184.6607683484999
 20
161.8534451146
 30
0.0
 11
184.6607683484999
 21
158.4534451146
 31
0.0
  0
LINE
  5
3AD
330
21F
100
AcDbEntity
  8
0
  6
Continuous
 62
   255
100
AcDbLine
 10
187.3407686092
 20
203.0534451146
 30
0.0
 11
187.3407685856
 21
199.4229000656
 31
0.0
  0
LINE
  5
3AE
330
21F
100
AcDbEntity
  8
0
  6
Continuous
 62
   255
100
AcDbLine
 10
187.3407685652
 20
196.2888388117
 30
0.0
 11
187.3407683414
 21
161.8534451146
 31
0.0
  0
LINE
  5
3AF
330
21F
100
AcDbEntity
  8
0
  6
Continuous
 62
   255
100
AcDbLine
 10
187.4407683485
 20
161.8534451146
 30
0.0
 11
187.4407683485
 21
196.2888389284
 31
0.0
  0
LINE
  5
3B0
330
21F
100
AcDbEntity
  8
0
  6
Continuous
 62
   255
100
AcDbLine
 10
187.4407683485
 20
199.4229000656
 30
0.0
 11
187.4407683485
 21
203.0534451146
 31
0.0
  0
LINE
  5
3B1
330
21F
100
AcDbEntity
  8
0
  6
Continuous
 62
   255
100
AcDbLine
 10
244.9407683485
 20
151.0534451146
 30
0.0
 11
236.5407683485
 21
151.0534451146
 31
0.0
  0
LINE
  5
3B2
330
21F
100
AcDbEntity
  8
0
  6
Continuous
 62
   255
100
AcDbLine
 10
189.9407683485
 20
151.0534451146
 30
0.0
 11
197.3407683485
 21
151.0534451146
 31
0.0
  0
LINE
  5
3B3
330
21F
100
AcDbEntity
  8
0
  6
Continuous
 62
   255
100
AcDbLine
 10
202.5407683485
 20
151.0534451146
 30
0.0
 11
231.3407683485
 21
151.0534451146
 31
0.0
  0
LINE
  5
3B4
330
21F
100
AcDbEntity
  8
0
  6
Continuous
 62
   255
100
AcDbLine
 10
197.5407683485
 20
151.0838630233
 30
0.0
 11
202.5407683485
 21
151.0838630233
 31
0.0
  0
LINE
  5
3B5
330
21F
100
AcDbEntity
  8
0
  6
Continuous
 62
   255
100
AcDbLine
 10
231.3407683485
 20
151.0838630233
 30
0.0
 11
236.3407683485
 21
151.0838630233
 31
0.0
  0
LWPOLYLINE
  5
3B6
330
21F
100
AcDbEntity
  8
02___PRT_ALL_AXES
  6
Continuous
 62
   255
100
AcDbPolyline
 90
        3
 70
     0
 43
0.0
 10
189.4407683484999
 20
170.9448996815
 10
189.5350689886
 20
170.3198615021
 10
189.5657702925
 20
169.7409460866
  0
LINE
  5
3B7
330
21F
100
AcDbEntity
  8
02___PRT_ALL_AXES
  6
Continuous
 62
   255
100
AcDbLine
 10
189.4407683484999
 20
224.5301199973
 30
0.0
 11
189.4407683484999
 21
170.9448996815
 31
0.0
  0
LINE
  5
3B8
330
21F
100
AcDbEntity
  8
0
  6
Continuous
 62
   255
100
AcDbLine
 10
189.4407683484999
 20
170.9448996815
 30
0.0
 11
189.4407683484999
 21
168.6853156649
 31
0.0
  0
LINE
  5
3B9
330
21F
100
AcDbEntity
  8
02___PRT_ALL_AXES
  6
Continuous
 62
   255
100
AcDbLine
 10
189.4407683484999
 20
168.6853156649
 30
0.0
 11
189.4407683484999
 21
151.5534451145
 31
0.0
  0
LINE
  5
3BA
330
21F
100
AcDbEntity
  8
0
  6
Continuous
 62
   255
100
AcDbLine
 10
189.9407683485
 20
225.0534451146
 30
0.0
 11
189.9407683485
 21
151.0534451146
 31
0.0
  0
LWPOLYLINE
  5
3BB
330
21F
100
AcDbEntity
  8
02___PRT_ALL_AXES
  6
Continuous
 62
   255
100
AcDbPolyline
 90
        3
 70
     0
 43
0.0
 10
189.5657702925
 20
169.7409460866
 10
189.5349804498
 20
169.1977051795
 10
189.4407683484999
 20
168.6853156649
  0
LINE
  5
3BC
330
21F
100
AcDbEntity
  8
0
  6
Continuous
 62
   255
100
AcDbLine
 10
187.4407679287
 20
196.288839153
 30
0.0
 11
187.3407682999
 21
196.2241156579
 31
0.0
  0
LINE
  5
3BD
330
21F
100
AcDbEntity
  8
0
  6
Continuous
 62
   255
100
AcDbLine
 10
184.0207683484999
 20
158.4534451146
 30
0.0
 11
184.6607683484999
 21
158.4534451146
 31
0.0
  0
LINE
  5
3BE
330
21F
100
AcDbEntity
  8
0
  6
Continuous
 62
   255
100
AcDbLine
 10
197.5407683485
 20
158.6313345564
 30
0.0
 11
197.4407683484999
 21
158.6313345564
 31
0.0
  0
LINE
  5
3BF
330
21F
100
AcDbEntity
  8
0
  6
Continuous
 62
   255
100
AcDbLine
 10
236.3407683485
 20
158.6313345564
 30
0.0
 11
236.4407683485
 21
158.6313345564
 31
0.0
  0
LINE
  5
3C0
330
21F
100
AcDbEntity
  8
0
  6
Continuous
 62
   255
100
AcDbLine
 10
197.4407683484999
 20
158.8227226235
 30
0.0
 11
197.3407683485
 21
158.8227226235
 31
0.0
  0
LINE
  5
3C1
330
21F
100
AcDbEntity
  8
0
  6
Continuous
 62
   255
100
AcDbLine
 10
236.4407683485
 20
158.8227226235
 30
0.0
 11
236.5407683485
 21
158.8227226235
 31
0.0
  0
LINE
  5
3C2
330
21F
100
AcDbEntity
  8
0
  6
Continuous
 62
   255
100
AcDbLine
 10
184.0207683484999
 20
159.0077011146
 30
0.0
 11
184.6607683484999
 21
159.0077011146
 31
0.0
  0
LINE
  5
3C3
330
21F
100
AcDbEntity
  8
0
  6
Continuous
 62
   255
100
AcDbLine
 10
197.5407683485
 20
159.6763593945
 30
0.0
 11
197.4407683484999
 21
159.6763593945
 31
0.0
  0
LINE
  5
3C4
330
21F
100
AcDbEntity
  8
0
  6
Continuous
 62
   255
100
AcDbLine
 10
236.3407683485
 20
159.6763593945
 30
0.0
 11
236.4407683485
 21
159.6763593945
 31
0.0
  0
LINE
  5
3C5
330
21F
100
AcDbEntity
  8
0
  6
Continuous
 62
   255
100
AcDbLine
 10
197.4407683484999
 20
159.8677474617
 30
0.0
 11
197.3407683485
 21
159.8677474617
 31
0.0
  0
LINE
  5
3C6
330
21F
100
AcDbEntity
  8
0
  6
Continuous
 62
   255
100
AcDbLine
 10
236.4407683485
 20
159.8677474617
 30
0.0
 11
236.5407683485
 21
159.8677474617
 31
0.0
  0
LINE
  5
3C7
330
21F
100
AcDbEntity
  8
0
  6
Continuous
 62
   255
100
AcDbLine
 10
197.3407683485
 20
225.0534451146
 30
0.0
 11
197.3407683485
 21
151.0534451146
 31
0.0
  0
LINE
  5
3C8
330
21F
100
AcDbEntity
  8
0
  6
Continuous
 62
   255
100
AcDbLine
 10
197.4407683484999
 20
158.6313345564
 30
0.0
 11
197.4407683484999
 21
169.8034451146
 31
0.0
  0
LINE
  5
3C9
330
21F
100
AcDbEntity
  8
0
  6
Continuous
 62
   255
100
AcDbLine
 10
197.4407683484999
 20
172.8034451145999
 30
0.0
 11
197.4407683484999
 21
186.8034451146
 31
0.0
  0
LINE
  5
3CA
330
21F
100
AcDbEntity
  8
0
  6
Continuous
 62
   255
100
AcDbLine
 10
197.4407683484999
 20
189.3034451145999
 30
0.0
 11
197.4407683484999
 21
217.4755556727
 31
0.0
  0
LINE
  5
3CB
330
21F
100
AcDbEntity
  8
0
  6
Continuous
 62
   255
100
AcDbLine
 10
197.5407683485
 20
151.0838630233
 30
0.0
 11
197.5407683485
 21
225.0534451146
 31
0.0
  0
LINE
  5
3CC
330
21F
100
AcDbEntity
  8
0
  6
Continuous
 62
   255
100
AcDbLine
 10
201.1157683485
 20
151.0838630233
 30
0.0
 11
201.1157683485
 21
137.1432248577
 31
0.0
  0
LINE
  5
3CD
330
21F
100
AcDbEntity
  8
0
  6
Continuous
 62
   255
100
AcDbLine
 10
189.4407683484999
 20
161.8534451146
 30
0.0
 11
171.1407683485
 21
161.8534451146
 31
0.0
  0
LINE
  5
3CE
330
21F
100
AcDbEntity
  8
0
  6
Continuous
 62
   255
100
AcDbLine
 10
202.3657683485
 20
151.0838630233
 30
0.0
 11
202.3657683485
 21
137.1432248577
 31
0.0
  0
LINE
  5
3CF
330
21F
100
AcDbEntity
  8
0
  6
Continuous
 62
   255
100
AcDbLine
 10
202.5407683485
 20
151.0838630233
 30
0.0
 11
202.5407683485
 21
151.0534451146
 31
0.0
  0
LINE
  5
3D0
330
21F
100
AcDbEntity
  8
0
  6
Continuous
 62
   255
100
AcDbLine
 10
197.5407683485
 20
166.0952022626
 30
0.0
 11
197.4407683484999
 21
166.0952022626
 31
0.0
  0
LINE
  5
3D1
330
21F
100
AcDbEntity
  8
0
  6
Continuous
 62
   255
100
AcDbLine
 10
236.3407683485
 20
166.0952022626
 30
0.0
 11
236.4407683485
 21
166.0952022626
 31
0.0
  0
LINE
  5
3D2
330
21F
100
AcDbEntity
  8
0
  6
Continuous
 62
   255
100
AcDbLine
 10
197.4407683484999
 20
166.231920723
 30
0.0
 11
197.3407683485
 21
166.231920723
 31
0.0
  0
LINE
  5
3D3
330
21F
100
AcDbEntity
  8
0
  6
Continuous
 62
   255
100
AcDbLine
 10
236.4407683485
 20
166.231920723
 30
0.0
 11
236.5407683485
 21
166.231920723
 31
0.0
  0
LINE
  5
3D4
330
21F
100
AcDbEntity
  8
0
  6
Continuous
 62
   255
100
AcDbLine
 10
247.4407683485
 20
168.0534451146
 30
0.0
 11
245.4407683485
 21
168.0534451146
 31
0.0
  0
LINE
  5
3D5
330
21F
100
AcDbEntity
  8
0
  6
Continuous
 62
   255
100
AcDbLine
 10
197.5407683485
 20
168.7227129243
 30
0.0
 11
197.4407683484999
 21
168.7227129243
 31
0.0
  0
LINE
  5
3D6
330
21F
100
AcDbEntity
  8
0
  6
Continuous
 62
   255
100
AcDbLine
 10
236.3407683485
 20
168.7227129243
 30
0.0
 11
236.4407683485
 21
168.7227129243
 31
0.0
  0
LINE
  5
3D7
330
21F
100
AcDbEntity
  8
0
  6
Continuous
 62
   255
100
AcDbLine
 10
197.4407683484999
 20
168.8594313847
 30
0.0
 11
197.3407683485
 21
168.8594313847
 31
0.0
  0
LINE
  5
3D8
330
21F
100
AcDbEntity
  8
0
  6
Continuous
 62
   255
100
AcDbLine
 10
236.4407683485
 20
168.8594313847
 30
0.0
 11
236.5407683485
 21
168.8594313847
 31
0.0
  0
LINE
  5
3D9
330
21F
100
AcDbEntity
  8
0
  6
Continuous
 62
   255
100
AcDbLine
 10
197.5407683485
 20
169.8034451146
 30
0.0
 11
197.3407683485
 21
169.8034451146
 31
0.0
  0
LINE
  5
3DA
330
21F
100
AcDbEntity
  8
0
  6
Continuous
 62
   255
100
AcDbLine
 10
236.3407683485
 20
169.8034451146
 30
0.0
 11
236.5407683485
 21
169.8034451146
 31
0.0
  0
LINE
  5
3DB
330
21F
100
AcDbEntity
  8
0
  6
Continuous
 62
     2
100
AcDbLine
 10
236.5407683485
 20
170.0534451146
 30
0.0
 11
236.3407683485
 21
170.0534451146
 31
0.0
  0
LINE
  5
3DC
330
21F
100
AcDbEntity
  8
0
  6
Continuous
 62
     2
100
AcDbLine
 10
197.3407683485
 20
170.0534451146
 30
0.0
 11
197.5407683485
 21
170.0534451146
 31
0.0
  0
LINE
  5
3DD
330
21F
100
AcDbEntity
  8
0
  6
Continuous
 62
     2
100
AcDbLine
 10
236.5407683485
 20
172.5534451146
 30
0.0
 11
236.3407683485
 21
172.5534451146
 31
0.0
  0
LINE
  5
3DE
330
21F
100
AcDbEntity
  8
0
  6
Continuous
 62
     2
100
AcDbLine
 10
197.3407683485
 20
172.5534451146
 30
0.0
 11
197.5407683485
 21
172.5534451146
 31
0.0
  0
LINE
  5
3DF
330
21F
100
AcDbEntity
  8
0
  6
Continuous
 62
   255
100
AcDbLine
 10
197.5407683485
 20
172.8034451145999
 30
0.0
 11
197.3407683485
 21
172.8034451145999
 31
0.0
  0
LINE
  5
3E0
330
21F
100
AcDbEntity
  8
0
  6
Continuous
 62
   255
100
AcDbLine
 10
236.3407683485
 20
172.8034451145999
 30
0.0
 11
236.5407683485
 21
172.8034451145999
 31
0.0
  0
LINE
  5
3E1
330
21F
100
AcDbEntity
  8
0
  6
Continuous
 62
   255
100
AcDbLine
 10
236.4407683485
 20
173.5078590385
 30
0.0
 11
236.3407683485
 21
173.5078590385
 31
0.0
  0
LINE
  5
3E2
330
21F
100
AcDbEntity
  8
0
  6
Continuous
 62
   255
100
AcDbLine
 10
197.4407683484999
 20
173.5078590385
 30
0.0
 11
197.5407683485
 21
173.5078590385
 31
0.0
  0
LINE
  5
3E3
330
21F
100
AcDbEntity
  8
0
  6
Continuous
 62
   255
100
AcDbLine
 10
236.4407683485
 20
176.0534451146
 30
0.0
 11
236.3407683485
 21
176.0534451146
 31
0.0
  0
LINE
  5
3E4
330
21F
100
AcDbEntity
  8
0
  6
Continuous
 62
   255
100
AcDbLine
 10
197.4407683484999
 20
176.0534451146
 30
0.0
 11
197.5407683485
 21
176.0534451146
 31
0.0
  0
LINE
  5
3E5
330
21F
100
AcDbEntity
  8
0
  6
Continuous
 62
   255
100
AcDbLine
 10
197.5407683485
 20
179.4427634082
 30
0.0
 11
197.4407683484999
 21
179.4427634082
 31
0.0
  0
LINE
  5
3E6
330
21F
100
AcDbEntity
  8
0
  6
Continuous
 62
   255
100
AcDbLine
 10
236.3407683485
 20
179.4427634082
 30
0.0
 11
236.4407683485
 21
179.4427634082
 31
0.0
  0
LINE
  5
3E7
330
21F
100
AcDbEntity
  8
0
  6
Continuous
 62
   255
100
AcDbLine
 10
197.4407683484999
 20
179.4881786608
 30
0.0
 11
197.3407683485
 21
179.4881786608
 31
0.0
  0
LINE
  5
3E8
330
21F
100
AcDbEntity
  8
0
  6
Continuous
 62
   255
100
AcDbLine
 10
236.4407683485
 20
179.4881786608
 30
0.0
 11
236.5407683485
 21
179.4881786608
 31
0.0
  0
LINE
  5
3E9
330
21F
100
AcDbEntity
  8
0
  6
Continuous
 62
   255
100
AcDbLine
 10
197.5407683485
 20
182.9487205336
 30
0.0
 11
197.4407683484999
 21
182.9487205336
 31
0.0
  0
LINE
  5
3EA
330
21F
100
AcDbEntity
  8
0
  6
Continuous
 62
   255
100
AcDbLine
 10
236.3407683485
 20
182.9487205336
 30
0.0
 11
236.4407683485
 21
182.9487205336
 31
0.0
  0
LINE
  5
3EB
330
21F
100
AcDbEntity
  8
0
  6
Continuous
 62
   255
100
AcDbLine
 10
197.4407683484999
 20
182.9941357862
 30
0.0
 11
197.3407683485
 21
182.9941357862
 31
0.0
  0
LINE
  5
3EC
330
21F
100
AcDbEntity
  8
0
  6
Continuous
 62
   255
100
AcDbLine
 10
236.4407683485
 20
182.9941357862
 30
0.0
 11
236.5407683485
 21
182.9941357862
 31
0.0
  0
LINE
  5
3ED
330
21F
100
AcDbEntity
  8
0
  6
Continuous
 62
   255
100
AcDbLine
 10
236.4407683485
 20
184.5382543749
 30
0.0
 11
236.3407683485
 21
184.5382543749
 31
0.0
  0
LINE
  5
3EE
330
21F
100
AcDbEntity
  8
0
  6
Continuous
 62
   255
100
AcDbLine
 10
197.4407683484999
 20
184.5382543749
 30
0.0
 11
197.5407683485
 21
184.5382543749
 31
0.0
  0
LINE
  5
3EF
330
21F
100
AcDbEntity
  8
0
  6
Continuous
 62
   255
100
AcDbLine
 10
265.4407683485
 20
185.5534451146
 30
0.0
 11
247.9407683485
 21
185.5534451146
 31
0.0
  0
LINE
  5
3F0
330
21F
100
AcDbEntity
  8
0
  6
Continuous
 62
   255
100
AcDbLine
 10
236.5407683485
 20
186.8034451146
 30
0.0
 11
236.3407683485
 21
186.8034451146
 31
0.0
  0
LINE
  5
3F1
330
21F
100
AcDbEntity
  8
0
  6
Continuous
 62
   255
100
AcDbLine
 10
197.3407683485
 20
186.8034451146
 30
0.0
 11
197.5407683485
 21
186.8034451146
 31
0.0
  0
LINE
  5
3F2
330
21F
100
AcDbEntity
  8
02_AXES
  6
CENTER
 62
     2
100
AcDbLine
 10
168.370843323
 20
188.0534451145999
 30
0.0
 11
269.656882656
 21
188.0534451145999
 31
0.0
  0
LINE
  5
3F3
330
21F
100
AcDbEntity
  8
0
  6
Continuous
 62
   255
100
AcDbLine
 10
236.5407683485
 20
189.3034451145999
 30
0.0
 11
236.3407683485
 21
189.3034451145999
 31
0.0
  0
LINE
  5
3F4
330
21F
100
AcDbEntity
  8
0
  6
Continuous
 62
   255
100
AcDbLine
 10
197.3407683485
 20
189.3034451145999
 30
0.0
 11
197.5407683485
 21
189.3034451145999
 31
0.0
  0
LINE
  5
3F5
330
21F
100
AcDbEntity
  8
0
  6
Continuous
 62
   255
100
AcDbLine
 10
231.3407683485
 20
151.0838630233
 30
0.0
 11
231.3407683485
 21
151.0534451146
 31
0.0
  0
LINE
  5
3F6
330
21F
100
AcDbEntity
  8
0
  6
Continuous
 62
   255
100
AcDbLine
 10
231.4407683485
 20
151.0838630233
 30
0.0
 11
231.4407683485
 21
137.1432248577
 31
0.0
  0
LINE
  5
3F7
330
21F
100
AcDbEntity
  8
0
  6
Continuous
 62
   255
100
AcDbLine
 10
265.4407683485
 20
190.5534451146
 30
0.0
 11
247.9407683485
 21
190.5534451146
 31
0.0
  0
LINE
  5
3F8
330
21F
100
AcDbEntity
  8
0
  6
Continuous
 62
   255
100
AcDbLine
 10
171.1407683485
 20
190.6388735734999
 30
0.0
 11
170.7407683485
 21
190.6388735734999
 31
0.0
  0
LINE
  5
3F9
330
21F
100
AcDbEntity
  8
0
  6
Continuous
 62
   255
100
AcDbLine
 10
171.1407683485
 20
191.2545097762
 30
0.0
 11
170.7407683485
 21
191.2545097762
 31
0.0
  0
LINE
  5
3FA
330
21F
100
AcDbEntity
  8
0
  6
Continuous
 62
   255
100
AcDbLine
 10
236.4407683485
 20
191.5686358543
 30
0.0
 11
236.3407683485
 21
191.5686358543
 31
0.0
  0
LINE
  5
3FB
330
21F
100
AcDbEntity
  8
0
  6
Continuous
 62
   255
100
AcDbLine
 10
197.4407683484999
 20
191.5686358543
 30
0.0
 11
197.5407683485
 21
191.5686358543
 31
0.0
  0
LINE
  5
3FC
330
21F
100
AcDbEntity
  8
0
  6
Continuous
 62
   255
100
AcDbLine
 10
171.1407683485
 20
192.1545097762
 30
0.0
 11
170.7407683485
 21
192.1545097762
 31
0.0
  0
LINE
  5
3FD
330
21F
100
AcDbEntity
  8
0
  6
Continuous
 62
   255
100
AcDbLine
 10
174.2407683485
 20
192.564031902
 30
0.0
 11
171.1407683485
 21
192.564031902
 31
0.0
  0
LINE
  5
3FE
330
21F
100
AcDbEntity
  8
0
  6
Continuous
 62
   255
100
AcDbLine
 10
197.4407683484999
 20
193.1127544429
 30
0.0
 11
197.3407683485
 21
193.1127544429
 31
0.0
  0
LINE
  5
3FF
330
21F
100
AcDbEntity
  8
0
  6
Continuous
 62
   255
100
AcDbLine
 10
236.4407683485
 20
193.1127544429
 30
0.0
 11
236.5407683485
 21
193.1127544429
 31
0.0
  0
LINE
  5
400
330
21F
100
AcDbEntity
  8
0
  6
Continuous
 62
   255
100
AcDbLine
 10
197.5407683485
 20
193.1581696955
 30
0.0
 11
197.4407683484999
 21
193.1581696955
 31
0.0
  0
LINE
  5
401
330
21F
100
AcDbEntity
  8
0
  6
Continuous
 62
   255
100
AcDbLine
 10
236.3407683485
 20
193.1581696955
 30
0.0
 11
236.4407683485
 21
193.1581696955
 31
0.0
  0
LINE
  5
402
330
21F
100
AcDbEntity
  8
0
  6
Continuous
 62
   255
100
AcDbLine
 10
171.1407683485
 20
193.3081846301
 30
0.0
 11
170.7407683485
 21
193.3081846301
 31
0.0
  0
LINE
  5
403
330
21F
100
AcDbEntity
  8
0
  6
Continuous
 62
   255
100
AcDbLine
 10
171.1407683485
 20
194.2081846301
 30
0.0
 11
170.7407683485
 21
194.2081846301
 31
0.0
  0
LINE
  5
404
330
21F
100
AcDbEntity
  8
0
  6
Continuous
 62
   255
100
AcDbLine
 10
232.8407683485
 20
151.0838630233
 30
0.0
 11
232.8407683485
 21
137.1432248577
 31
0.0
  0
LINE
  5
405
330
21F
100
AcDbEntity
  8
0
  6
Continuous
 62
   255
100
AcDbLine
 10
189.4407683484999
 20
196.2888390478
 30
0.0
 11
174.2407683485
 21
196.2888389342
 31
0.0
  0
LINE
  5
406
330
21F
100
AcDbEntity
  8
0
  6
Continuous
 62
   255
100
AcDbLine
 10
197.4407683484999
 20
196.6187115683
 30
0.0
 11
197.3407683485
 21
196.6187115683
 31
0.0
  0
LINE
  5
407
330
21F
100
AcDbEntity
  8
0
  6
Continuous
 62
   255
100
AcDbLine
 10
236.4407683485
 20
196.6187115683
 30
0.0
 11
236.5407683485
 21
196.6187115683
 31
0.0
  0
LINE
  5
408
330
21F
100
AcDbEntity
  8
0
  6
Continuous
 62
   255
100
AcDbLine
 10
197.5407683485
 20
196.6641268209
 30
0.0
 11
197.4407683484999
 21
196.6641268209
 31
0.0
  0
LINE
  5
409
330
21F
100
AcDbEntity
  8
0
  6
Continuous
 62
   255
100
AcDbLine
 10
236.3407683485
 20
196.6641268209
 30
0.0
 11
236.4407683485
 21
196.6641268209
 31
0.0
  0
LINE
  5
40A
330
21F
100
AcDbEntity
  8
0
  6
Continuous
 62
   255
100
AcDbLine
 10
174.2407683485
 20
196.741744693
 30
0.0
 11
189.4407683484999
 21
196.741744693
 31
0.0
  0
LINE
  5
40B
330
21F
100
AcDbEntity
  8
0
  6
Continuous
 62
   255
100
AcDbLine
 10
236.3407683485
 20
151.0838630233
 30
0.0
 11
236.3407683485
 21
225.0534451146
 31
0.0
  0
LINE
  5
40C
330
21F
100
AcDbEntity
  8
0
  6
Continuous
 62
   255
100
AcDbLine
 10
236.4407683485
 20
158.6313345564
 30
0.0
 11
236.4407683485
 21
169.8034451146
 31
0.0
  0
LINE
  5
40D
330
21F
100
AcDbEntity
  8
0
  6
Continuous
 62
   255
100
AcDbLine
 10
236.4407683485
 20
172.8034451145999
 30
0.0
 11
236.4407683485
 21
186.8034451146
 31
0.0
  0
LINE
  5
40E
330
21F
100
AcDbEntity
  8
0
  6
Continuous
 62
   255
100
AcDbLine
 10
236.4407683485
 20
189.3034451145999
 30
0.0
 11
236.4407683485
 21
217.4755556727
 31
0.0
  0
LINE
  5
40F
330
21F
100
AcDbEntity
  8
0
  6
Continuous
 62
   255
100
AcDbLine
 10
236.5407683485
 20
225.0534451146
 30
0.0
 11
236.5407683485
 21
151.0534451146
 31
0.0
  0
LINE
  5
410
330
21F
100
AcDbEntity
  8
0
  6
Continuous
 62
   255
100
AcDbLine
 10
173.2407683485
 20
199.1410801146
 30
0.0
 11
171.1407683485
 21
199.1410801146
 31
0.0
  0
LINE
  5
411
330
21F
100
AcDbEntity
  8
0
  6
Continuous
 62
   255
100
AcDbLine
 10
189.4407683484999
 20
199.4229000656
 30
0.0
 11
174.2407683485
 21
199.4229000656
 31
0.0
  0
LINE
  5
412
330
21F
100
AcDbEntity
  8
0
  6
Continuous
 62
   255
100
AcDbLine
 10
236.4407683485
 20
200.0534451146
 30
0.0
 11
236.3407683485
 21
200.0534451146
 31
0.0
  0
LINE
  5
413
330
21F
100
AcDbEntity
  8
0
  6
Continuous
 62
   255
100
AcDbLine
 10
197.4407683484999
 20
200.0534451146
 30
0.0
 11
197.5407683485
 21
200.0534451146
 31
0.0
  0
LINE
  5
414
330
21F
100
AcDbEntity
  8
0
  6
Continuous
 62
   255
100
AcDbLine
 10
174.2407683485
 20
200.4715964283
 30
0.0
 11
173.2407683485
 21
200.4715964283
 31
0.0
  0
LINE
  5
415
330
21F
100
AcDbEntity
  8
0
  6
Continuous
 62
   255
100
AcDbLine
 10
171.1407683485
 20
201.3586071779
 30
0.0
 11
174.2407683485
 21
201.3586071779
 31
0.0
  0
LINE
  5
416
330
21F
100
AcDbEntity
  8
0
  6
Continuous
 62
   255
100
AcDbLine
 10
236.4407683485
 20
202.5990311906
 30
0.0
 11
236.3407683485
 21
202.5990311906
 31
0.0
  0
LINE
  5
417
330
21F
100
AcDbEntity
  8
0
  6
Continuous
 62
   255
100
AcDbLine
 10
197.4407683484999
 20
202.5990311906
 30
0.0
 11
197.5407683485
 21
202.5990311906
 31
0.0
  0
LINE
  5
418
330
21F
100
AcDbEntity
  8
0
  6
Continuous
 62
   255
100
AcDbLine
 10
189.4407683484999
 20
203.0534451146
 30
0.0
 11
187.4407683485
 21
203.0534451146
 31
0.0
  0
LINE
  5
419
330
21F
100
AcDbEntity
  8
0
  6
Continuous
 62
   255
100
AcDbLine
 10
187.3407683485
 20
203.0534451146
 30
0.0
 11
171.1407683485
 21
203.0534451146
 31
0.0
  0
LINE
  5
41A
330
21F
100
AcDbEntity
  8
0
  6
Continuous
 62
   255
100
AcDbLine
 10
197.4407683484999
 20
207.2474588444
 30
0.0
 11
197.3407683485
 21
207.2474588444
 31
0.0
  0
LINE
  5
41B
330
21F
100
AcDbEntity
  8
0
  6
Continuous
 62
   255
100
AcDbLine
 10
236.4407683485
 20
207.2474588444
 30
0.0
 11
236.5407683485
 21
207.2474588444
 31
0.0
  0
LINE
  5
41C
330
21F
100
AcDbEntity
  8
0
  6
Continuous
 62
   255
100
AcDbLine
 10
197.5407683485
 20
207.3841773048
 30
0.0
 11
197.4407683484999
 21
207.3841773048
 31
0.0
  0
LINE
  5
41D
330
21F
100
AcDbEntity
  8
0
  6
Continuous
 62
   255
100
AcDbLine
 10
236.3407683485
 20
207.3841773048
 30
0.0
 11
236.4407683485
 21
207.3841773048
 31
0.0
  0
LWPOLYLINE
  5
41E
330
21F
100
AcDbEntity
  8
02___PRT_ALL_AXES
  6
Continuous
 62
   255
100
AcDbPolyline
 90
        3
 70
     0
 43
0.0
 10
245.4407683485
 20
168.6853156479
 10
245.3464679567
 20
169.1984576625
 10
245.3157663992
 20
169.7409460892
  0
LINE
  5
41F
330
21F
100
AcDbEntity
  8
0
  6
Continuous
 62
   255
100
AcDbLine
 10
244.9407683485
 20
151.0534451146
 30
0.0
 11
244.9407683485
 21
225.0534451146
 31
0.0
  0
LINE
  5
420
330
21F
100
AcDbEntity
  8
02___PRT_ALL_AXES
  6
Continuous
 62
   255
100
AcDbLine
 10
245.4407683485
 20
151.5534451145
 30
0.0
 11
245.4407683485
 21
168.6853156479
 31
0.0
  0
LINE
  5
421
330
21F
100
AcDbEntity
  8
0
  6
Continuous
 62
   255
100
AcDbLine
 10
245.4407683485
 20
168.6853156479
 30
0.0
 11
245.4407683485
 21
170.9448997101
 31
0.0
  0
LINE
  5
422
330
21F
100
AcDbEntity
  8
02___PRT_ALL_AXES
  6
Continuous
 62
   255
100
AcDbLine
 10
245.4407683485
 20
170.9448997101
 30
0.0
 11
245.4407683485
 21
224.5301199857
 31
0.0
  0
LINE
  5
423
330
21F
100
AcDbEntity
  8
0
  6
Continuous
 62
   255
100
AcDbLine
 10
247.9407683485
 20
168.5534451144
 30
0.0
 11
247.9407683485
 21
207.5534451147
 31
0.0
  0
LINE
  5
424
330
21F
100
AcDbEntity
  8
0
  6
Continuous
 62
   255
100
AcDbLine
 10
247.4407756624
 20
207.1048921702
 30
0.0
 11
247.4407683485
 21
208.0534451146
 31
0.0
  0
LINE
  5
425
330
21F
100
AcDbEntity
  8
0
  6
Continuous
 62
   255
100
AcDbLine
 10
247.4407683485
 20
168.0534451146
 30
0.0
 11
247.4407756624
 21
207.1048921702
 31
0.0
  0
LWPOLYLINE
  5
426
330
21F
100
AcDbEntity
  8
02___PRT_ALL_AXES
  6
Continuous
 62
   255
100
AcDbPolyline
 90
        3
 70
     0
 43
0.0
 10
245.3157663992
 20
169.7409460892
 10
245.3465542985
 20
170.320702347
 10
245.4407683485
 20
170.9448997101
  0
LINE
  5
427
330
21F
100
AcDbEntity
  8
0
  6
Continuous
 62
   255
100
AcDbLine
 10
247.9407720598
 20
168.5534414041
 30
0.0
 11
247.440772155
 21
168.053441309
 31
0.0
  0
LINE
  5
428
330
21F
100
AcDbEntity
  8
0
  6
Continuous
 62
   255
100
AcDbLine
 10
247.4407683485
 20
208.0534451146
 30
0.0
 11
245.4407683485
 21
208.0534451146
 31
0.0
  0
LINE
  5
429
330
21F
100
AcDbEntity
  8
0
  6
Continuous
 62
   255
100
AcDbLine
 10
197.4407683484999
 20
209.8749695061
 30
0.0
 11
197.3407683485
 21
209.8749695061
 31
0.0
  0
LINE
  5
42A
330
21F
100
AcDbEntity
  8
0
  6
Continuous
 62
   255
100
AcDbLine
 10
236.4407683485
 20
209.8749695061
 30
0.0
 11
236.5407683485
 21
209.8749695061
 31
0.0
  0
LINE
  5
42B
330
21F
100
AcDbEntity
  8
0
  6
Continuous
 62
   255
100
AcDbLine
 10
197.5407683485
 20
210.0116879665
 30
0.0
 11
197.4407683484999
 21
210.0116879665
 31
0.0
  0
LINE
  5
42C
330
21F
100
AcDbEntity
  8
0
  6
Continuous
 62
   255
100
AcDbLine
 10
236.3407683485
 20
210.0116879665
 30
0.0
 11
236.4407683485
 21
210.0116879665
 31
0.0
  0
LINE
  5
42D
330
21F
100
AcDbEntity
  8
0
  6
Continuous
 62
   255
100
AcDbLine
 10
197.4407683484999
 20
216.2391427675
 30
0.0
 11
197.3407683485
 21
216.2391427675
 31
0.0
  0
LINE
  5
42E
330
21F
100
AcDbEntity
  8
0
  6
Continuous
 62
   255
100
AcDbLine
 10
236.4407683485
 20
216.2391427675
 30
0.0
 11
236.5407683485
 21
216.2391427675
 31
0.0
  0
LINE
  5
42F
330
21F
100
AcDbEntity
  8
0
  6
Continuous
 62
   255
100
AcDbLine
 10
197.5407683485
 20
216.4305308346
 30
0.0
 11
197.4407683484999
 21
216.4305308346
 31
0.0
  0
LINE
  5
430
330
21F
100
AcDbEntity
  8
0
  6
Continuous
 62
   255
100
AcDbLine
 10
236.3407683485
 20
216.4305308346
 30
0.0
 11
236.4407683485
 21
216.4305308346
 31
0.0
  0
LINE
  5
431
330
21F
100
AcDbEntity
  8
0
  6
Continuous
 62
   255
100
AcDbLine
 10
197.4407683484999
 20
217.2841676056
 30
0.0
 11
197.3407683485
 21
217.2841676056
 31
0.0
  0
LINE
  5
432
330
21F
100
AcDbEntity
  8
0
  6
Continuous
 62
   255
100
AcDbLine
 10
236.4407683485
 20
217.2841676056
 30
0.0
 11
236.5407683485
 21
217.2841676056
 31
0.0
  0
LINE
  5
433
330
21F
100
AcDbEntity
  8
0
  6
Continuous
 62
   255
100
AcDbLine
 10
197.5407683485
 20
217.4755556727
 30
0.0
 11
197.4407683484999
 21
217.4755556727
 31
0.0
  0
LINE
  5
434
330
21F
100
AcDbEntity
  8
0
  6
Continuous
 62
   255
100
AcDbLine
 10
236.3407683485
 20
217.4755556727
 30
0.0
 11
236.4407683485
 21
217.4755556727
 31
0.0
  0
LINE
  5
435
330
21F
100
AcDbEntity
  8
0
  6
Continuous
 62
   255
100
AcDbLine
 10
197.5407683485
 20
220.0534451146
 30
0.0
 11
197.3407683485
 21
220.0534451146
 31
0.0
  0
LINE
  5
436
330
21F
100
AcDbEntity
  8
0
  6
Continuous
 62
   255
100
AcDbLine
 10
236.3407683485
 20
220.0534451146
 30
0.0
 11
236.5407683485
 21
220.0534451146
 31
0.0
  0
LINE
  5
437
330
21F
100
AcDbEntity
  8
0
  6
Continuous
 62
     2
100
AcDbLine
 10
236.5407683485
 20
220.3034451146
 30
0.0
 11
236.3407683485
 21
220.3034451146
 31
0.0
  0
LINE
  5
438
330
21F
100
AcDbEntity
  8
0
  6
Continuous
 62
     2
100
AcDbLine
 10
197.3407683485
 20
220.3034451146
 30
0.0
 11
197.5407683485
 21
220.3034451146
 31
0.0
  0
LINE
  5
439
330
21F
100
AcDbEntity
  8
0
  6
Continuous
 62
   255
100
AcDbLine
 10
245.440766406
 20
151.5534470574
 30
0.0
 11
244.9407663794
 21
151.053447084
 31
0.0
  0
LINE
  5
43A
330
21F
100
AcDbEntity
  8
0
  6
Continuous
 62
     2
100
AcDbLine
 10
236.5407683485
 20
222.8034451146
 30
0.0
 11
236.3407683485
 21
222.8034451146
 31
0.0
  0
LINE
  5
43B
330
21F
100
AcDbEntity
  8
0
  6
Continuous
 62
     2
100
AcDbLine
 10
197.3407683485
 20
222.8034451146
 30
0.0
 11
197.5407683485
 21
222.8034451146
 31
0.0
  0
LINE
  5
43C
330
21F
100
AcDbEntity
  8
0
  6
Continuous
 62
   255
100
AcDbLine
 10
197.5407683485
 20
223.0534451146
 30
0.0
 11
197.3407683485
 21
223.0534451146
 31
0.0
  0
LINE
  5
43D
330
21F
100
AcDbEntity
  8
0
  6
Continuous
 62
   255
100
AcDbLine
 10
236.3407683485
 20
223.0534451146
 30
0.0
 11
236.5407683485
 21
223.0534451146
 31
0.0
  0
LINE
  5
43E
330
21F
100
AcDbEntity
  8
0
  6
Continuous
 62
   255
100
AcDbLine
 10
247.9407720599
 20
207.553448825
 30
0.0
 11
247.4407721551
 21
208.0534489201
 31
0.0
  0
LINE
  5
43F
330
21F
100
AcDbEntity
  8
0
  6
Continuous
 62
   255
100
AcDbLine
 10
265.4407683485
 20
185.5534451146
 30
0.0
 11
265.4407683485
 21
190.5534451146
 31
0.0
  0
LINE
  5
440
330
21F
100
AcDbEntity
  8
0
  6
Continuous
 62
   255
100
AcDbLine
 10
244.9407683485
 20
225.0534451146
 30
0.0
 11
236.5407683485
 21
225.0534451146
 31
0.0
  0
LINE
  5
441
330
21F
100
AcDbEntity
  8
0
  6
Continuous
 62
   255
100
AcDbLine
 10
189.9407683485
 20
225.0534451146
 30
0.0
 11
197.3407683485
 21
225.0534451146
 31
0.0
  0
LINE
  5
442
330
21F
100
AcDbEntity
  8
0
  6
Continuous
 62
   255
100
AcDbLine
 10
197.5407683485
 20
225.0534451146
 30
0.0
 11
236.3407683485
 21
225.0534451146
 31
0.0
  0
LINE
  5
443
330
21F
100
AcDbEntity
  8
0
  6
Continuous
 62
   255
100
AcDbLine
 10
245.3157664009
 20
224.6784431635
 30
0.0
 11
244.9407663793
 21
225.0534431452
 31
0.0
  0
LINE
  5
444
330
21F
100
AcDbEntity
  8
02___PRT_ALL_AXES
  6
Continuous
 62
   255
100
AcDbLine
 10
245.4407683485
 20
224.5301199857
 30
0.0
 11
245.3157664009
 21
224.6784431635
 31
0.0
  0
LINE
  5
445
330
21F
100
AcDbEntity
  8
0
  6
Continuous
 62
   255
100
AcDbLine
 10
201.1157683485
 20
129.0650171184
 30
0.0
 11
201.1157683485
 21
123.1485059382
 31
0.0
  0
LINE
  5
446
330
21F
100
AcDbEntity
  8
0
  6
Continuous
 62
   255
100
AcDbLine
 10
201.1157683485
 20
123.0602107808
 30
0.0
 11
201.1157683485
 21
122.9699093455
 31
0.0
  0
LINE
  5
447
330
21F
100
AcDbEntity
  8
0
  6
Continuous
 62
   255
100
AcDbLine
 10
202.3657683485
 20
129.0650171184
 30
0.0
 11
202.3657683485
 21
123.1481631201
 31
0.0
  0
LINE
  5
448
330
21F
100
AcDbEntity
  8
0
  6
Continuous
 62
   255
100
AcDbLine
 10
202.3657683485
 20
123.0622699205
 30
0.0
 11
202.3657683485
 21
122.9695254335
 31
0.0
  0
LINE
  5
449
330
21F
100
AcDbEntity
  8
0
  6
Continuous
 62
   255
100
AcDbLine
 10
201.1157757885
 20
122.9684148351
 30
0.0
 11
201.1174532096
 21
122.9970043249
 31
0.0
  0
LINE
  5
44A
330
21F
100
AcDbEntity
  8
0
  6
Continuous
 62
   255
100
AcDbLine
 10
201.1174532096
 20
122.9970043249
 30
0.0
 11
201.1445375892
 21
123.0943185589
 31
0.0
  0
LWPOLYLINE
  5
44B
330
21F
100
AcDbEntity
  8
0
  6
Continuous
 62
   255
100
AcDbPolyline
 90
        3
 70
     0
 43
0.0
 10
202.339033649
 20
123.0901646848
 10
202.3645976124
 20
122.9917061133
 10
202.3657635869
 20
122.9681743335
  0
LINE
  5
44C
330
21F
100
AcDbEntity
  8
0
  6
Continuous
 62
   255
100
AcDbLine
 10
201.1279433172
 20
122.8969718874
 30
0.0
 11
201.1157757885
 21
122.9684148351
 31
0.0
  0
LINE
  5
44D
330
21F
100
AcDbEntity
  8
0
  6
Continuous
 62
   255
100
AcDbLine
 10
202.3657635869
 20
122.9681743335
 30
0.0
 11
202.3524276784
 21
122.8945287766
 31
0.0
  0
LWPOLYLINE
  5
44E
330
21F
100
AcDbEntity
  8
0
  6
Continuous
 62
   255
100
AcDbPolyline
 90
        4
 70
     0
 43
0.0
 10
201.2122865752
 20
123.1485059382
 10
201.3020300314
 20
123.1050404314
 10
201.4211858119
 20
123.0005902073
 10
201.5648804437
 20
122.8974320094
  0
LINE
  5
44F
330
21F
100
AcDbEntity
  8
0
  6
Continuous
 62
   255
100
AcDbLine
 10
201.1941455057
 20
122.8608503463
 30
0.0
 11
201.1279433172
 21
122.8969718874
 31
0.0
  0
LINE
  5
450
330
21F
100
AcDbEntity
  8
0
  6
Continuous
 62
   255
100
AcDbLine
 10
201.1445375892
 20
123.0943185589
 30
0.0
 11
201.2122865752
 21
123.1485059382
 31
0.0
  0
LWPOLYLINE
  5
451
330
21F
100
AcDbEntity
  8
0
  6
Continuous
 62
   255
100
AcDbPolyline
 90
        3
 70
     0
 43
0.0
 10
201.9229123291
 20
122.9008515616
 10
202.0702886838
 20
123.0092381562
 10
202.1877416957
 20
123.1114456133
  0
LWPOLYLINE
  5
452
330
21F
100
AcDbEntity
  8
0
  6
Continuous
 62
   255
100
AcDbPolyline
 90
        3
 70
     0
 43
0.0
 10
232.1407682426
 20
122.8493436536
 10
232.3828522333
 20
122.9098313355
 10
232.5876510271
 20
123.0236212846
  0
LINE
  5
453
330
21F
100
AcDbEntity
  8
0
  6
Continuous
 62
   255
100
AcDbLine
 10
201.5648804437
 20
122.8974320094
 30
0.0
 11
201.7407682626
 21
122.8493436556
 31
0.0
  0
LINE
  5
454
330
21F
100
AcDbEntity
  8
0
  6
Continuous
 62
   255
100
AcDbLine
 10
201.228376977
 20
122.9456467306
 30
0.0
 11
201.3657683485
 21
122.8901831772
 31
0.0
  0
LINE
  5
455
330
21F
100
AcDbEntity
  8
0
  6
Continuous
 62
   255
100
AcDbLine
 10
202.3524276784
 20
122.8945287766
 30
0.0
 11
202.2873911897
 21
122.8609236406
 31
0.0
  0
LINE
  5
456
330
21F
100
AcDbEntity
  8
0
  6
Continuous
 62
   255
100
AcDbLine
 10
202.1877416957
 20
123.1114456133
 30
0.0
 11
202.2692578
 21
123.1481631201
 31
0.0
  0
LINE
  5
457
330
21F
100
AcDbEntity
  8
0
  6
Continuous
 62
   255
100
AcDbLine
 10
231.5801642067
 20
123.0541644389
 30
0.0
 11
231.5279533082
 21
123.0452399583
 31
0.0
  0
LINE
  5
458
330
21F
100
AcDbEntity
  8
0
  6
Continuous
 62
   255
100
AcDbLine
 10
231.5822022856
 20
122.6401665803
 30
0.0
 11
232.6993344114
 21
122.6401665803
 31
0.0
  0
LINE
  5
459
330
21F
100
AcDbEntity
  8
0
  6
Continuous
 62
   255
100
AcDbLine
 10
231.4689409661
 20
122.6725156763
 30
0.0
 11
232.812595731
 21
122.6725156763
 31
0.0
  0
LINE
  5
45A
330
21F
100
AcDbEntity
  8
0
  6
Continuous
 62
   255
100
AcDbLine
 10
201.1941205997
 20
122.8597452708
 30
0.0
 11
202.2874160973
 21
122.8597452708
 31
0.0
  0
LWPOLYLINE
  5
45B
330
21F
100
AcDbEntity
  8
0
  6
Continuous
 62
   255
100
AcDbPolyline
 90
        3
 70
     0
 43
0.0
 10
202.2692578
 20
123.1481631201
 10
202.2808253896
 20
123.1478797986
 10
202.339033649
 20
123.0901646848
  0
LINE
  5
45C
330
21F
100
AcDbEntity
  8
0
  6
Continuous
 62
   255
100
AcDbLine
 10
232.7013897603
 20
123.0561145787
 30
0.0
 11
232.7456347293
 21
123.0502628096
 31
0.0
  0
LINE
  5
45D
330
21F
100
AcDbEntity
  8
0
  6
Continuous
 62
   255
100
AcDbLine
 10
231.6815027556
 20
123.0300529388
 30
0.0
 11
231.5801642067
 21
123.0541644389
 31
0.0
  0
LINE
  5
45E
330
21F
100
AcDbEntity
  8
0
  6
Continuous
 62
   255
100
AcDbLine
 10
201.7407682626
 20
122.8493436556
 30
0.0
 11
201.9229123291
 21
122.9008515616
 31
0.0
  0
LINE
  5
45F
330
21F
100
AcDbEntity
  8
0
  6
Continuous
 62
     2
100
AcDbLine
 10
232.8407683485
 20
129.0650171184
 30
0.0
 11
231.4407683485
 21
129.0650171184
 31
0.0
  0
LINE
  5
460
330
21F
100
AcDbEntity
  8
0
  6
Continuous
 62
     2
100
AcDbLine
 10
202.3657683485
 20
129.0650171184
 30
0.0
 11
201.1157683485
 21
129.0650171184
 31
0.0
  0
LWPOLYLINE
  5
461
330
21F
100
AcDbEntity
  8
0
  6
Continuous
 62
   255
100
AcDbPolyline
 90
        3
 70
     0
 43
0.0
 10
232.1407682426
 20
122.8493436536
 10
231.8938340818
 20
122.9121464756
 10
231.6815027556
 20
123.0300529388
  0
LINE
  5
462
330
21F
100
AcDbEntity
  8
0
  6
Continuous
 62
   255
100
AcDbLine
 10
231.4547363304
 20
122.681776725
 30
0.0
 11
231.4688990099
 21
122.6760640665
 31
0.0
  0
LWPOLYLINE
  5
463
330
21F
100
AcDbEntity
  8
0
  6
Continuous
 62
   255
100
AcDbPolyline
 90
        3
 70
     0
 43
0.0
 10
231.5822576261
 20
122.6425774796
 10
231.5164776066
 20
122.6699084941
 10
231.5152365486
 20
122.6725156763
  0
LINE
  5
464
330
21F
100
AcDbEntity
  8
0
  6
Continuous
 62
   255
100
AcDbLine
 10
232.5876510271
 20
123.0236212846
 30
0.0
 11
232.7013897603
 21
123.0561145787
 31
0.0
  0
LINE
  5
465
330
21F
100
AcDbEntity
  8
0
  6
Continuous
 62
   255
100
AcDbLine
 10
232.7623104842
 20
122.6670251116
 30
0.0
 11
232.6992876974
 21
122.6425048248
 31
0.0
  0
LINE
  5
466
330
21F
100
AcDbEntity
  8
0
  6
Continuous
 62
   255
100
AcDbLine
 10
231.5626686302
 20
122.9236264482
 30
0.0
 11
231.6508704
 21
122.8380990029
 31
0.0
  0
LINE
  5
467
330
21F
100
AcDbEntity
  8
0
  6
Continuous
 62
   255
100
AcDbLine
 10
232.7456347293
 20
123.0502628096
 30
0.0
 11
232.8217193815
 21
122.9209218876
 31
0.0
  0
LINE
  5
468
330
21F
100
AcDbEntity
  8
0
  6
Continuous
 62
   255
100
AcDbLine
 10
231.4407683573
 20
122.7685395306
 30
0.0
 11
231.4547363304
 21
122.681776725
 31
0.0
  0
LINE
  5
469
330
21F
100
AcDbEntity
  8
0
  6
Continuous
 62
   255
100
AcDbLine
 10
231.4407683485
 20
129.0650171184
 30
0.0
 11
231.4407683485
 21
122.7704092351
 31
0.0
  0
LINE
  5
46A
330
21F
100
AcDbEntity
  8
0
  6
Continuous
 62
   255
100
AcDbLine
 10
232.8407683485
 20
129.0650171184
 30
0.0
 11
232.8407683485
 21
122.7690746164
 31
0.0
  0
LINE
  5
46B
330
21F
100
AcDbEntity
  8
0
  6
Continuous
 62
   255
100
AcDbLine
 10
231.4594861758
 20
122.9196169818
 30
0.0
 11
231.4407683573
 21
122.7685395306
 31
0.0
  0
LWPOLYLINE
  5
46C
330
21F
100
AcDbEntity
  8
0
  6
Continuous
 62
   255
100
AcDbPolyline
 90
        3
 70
     0
 43
0.0
 10
232.8407683364
 20
122.7681559247
 10
232.8226820504
 20
122.6767287528
 10
232.8126616998
 20
122.6757306595
  0
LINE
  5
46D
330
21F
100
AcDbEntity
  8
0
  6
Continuous
 62
   255
100
AcDbLine
 10
231.5279533082
 20
123.0452399583
 30
0.0
 11
231.4594861758
 21
122.9196169818
 31
0.0
  0
LINE
  5
46E
330
21F
100
AcDbEntity
  8
0
  6
Continuous
 62
   255
100
AcDbLine
 10
232.8217193815
 20
122.9209218876
 30
0.0
 11
232.8407683364
 21
122.7681559247
 31
0.0
  0
LINE
  5
46F
330
21F
100
AcDbEntity
  8
0
  6
Continuous
 62
     2
100
AcDbLine
 10
112.5363337664
 20
137.0032050139
 30
0.0
 11
114.9363337664
 21
137.0032050139
 31
0.0
  0
LINE
  5
470
330
21F
100
AcDbEntity
  8
0
  6
Continuous
 62
   255
100
AcDbLine
 10
112.2844099777
 20
222.1084367913
 30
0.0
 11
112.9128208983
 21
222.3769579827
 31
0.0
  0
LINE
  5
471
330
21F
100
AcDbEntity
  8
0
  6
Continuous
 62
   255
100
AcDbLine
 10
112.6863337664
 20
221.843100287
 30
0.0
 11
113.2190485468
 21
222.0707303342
 31
0.0
  0
LINE
  5
472
330
21F
100
AcDbEntity
  8
0
  6
Continuous
 62
   255
100
AcDbLine
 10
112.2844099777
 20
220.9984534379
 30
0.0
 11
112.6863337664
 21
221.2637899422
 31
0.0
  0
LINE
  5
473
330
21F
100
AcDbEntity
  8
0
  6
Continuous
 62
   255
100
AcDbLine
 10
114.7863337664
 20
221.2637899422
 30
0.0
 11
114.253618986
 21
221.0361598949
 31
0.0
  0
LINE
  5
474
330
21F
100
AcDbEntity
  8
0
  6
Continuous
 62
   255
100
AcDbLine
 10
115.188257555
 20
220.9984534379
 30
0.0
 11
114.5598466345
 21
220.7299322465
 31
0.0
  0
LINE
  5
475
330
21F
100
AcDbEntity
  8
0
  6
Continuous
 62
   255
100
AcDbLine
 10
83.27255895090001
 20
170.7484534379
 30
0.0
 11
83.27255895090001
 21
171.8584367913
 31
0.0
  0
LINE
  5
476
330
21F
100
AcDbEntity
  8
0
  6
Continuous
 62
   255
100
AcDbLine
 10
115.188257555
 20
222.1084367913
 30
0.0
 11
114.7863337664
 21
221.843100287
 31
0.0
  0
LWPOLYLINE
  5
477
330
21F
100
AcDbEntity
  8
02___PRT_ALL_AXES
  6
Continuous
 62
   255
100
AcDbPolyline
 90
        3
 70
     0
 43
0.0
 10
82.79889241560001
 20
168.6853156479
 10
82.3734259891
 20
169.1984576625
 10
82.01815504089998
 20
169.7409460892
  0
LWPOLYLINE
  5
478
330
21F
100
AcDbEntity
  8
02___PRT_ALL_AXES
  6
Continuous
 62
   255
100
AcDbPolyline
 90
        3
 70
     0
 43
0.0
 10
82.01815504089998
 20
169.7409460892
 10
81.7256160178
 20
170.320702347
 10
81.4943209491
 20
170.9448997101
  0
LINE
  5
479
330
21F
100
AcDbEntity
  8
0
  6
Continuous
 62
   255
100
AcDbLine
 10
84.16949106289996
 20
169.8515213259
 30
0.0
 11
83.9009698715
 21
170.4799322465
 31
0.0
  0
LINE
  5
47A
330
21F
100
AcDbEntity
  8
0
  6
Continuous
 62
   255
100
AcDbLine
 10
84.43482756719999
 20
170.2534451146
 30
0.0
 11
84.20719752
 21
170.7861598949
 31
0.0
  0
LINE
  5
47B
330
21F
100
AcDbEntity
  8
0
  6
Continuous
 62
   255
100
AcDbLine
 10
83.67448273959999
 20
171.593100287
 30
0.0
 11
83.67448273959999
 21
171.0137899422
 31
0.0
  0
LINE
  5
47C
330
21F
100
AcDbEntity
  8
0
  6
Continuous
 62
   255
100
AcDbLine
 10
85.77448273959998
 20
171.0137899422
 30
0.0
 11
85.77448273959998
 21
171.593100287
 31
0.0
  0
LINE
  5
47D
330
21F
100
AcDbEntity
  8
0
  6
Continuous
 62
   255
100
AcDbLine
 10
86.17640652819998
 20
171.8584367913
 30
0.0
 11
86.17640652819998
 21
170.7484534379
 31
0.0
  0
LINE
  5
47E
330
21F
100
AcDbEntity
  8
0
  6
Continuous
 62
   255
100
AcDbLine
 10
114.5598466345
 20
222.3769579827
 30
0.0
 11
114.253618986
 21
222.0707303342
 31
0.0
  0
LINE
  5
47F
330
21F
100
AcDbEntity
  8
0
  6
Continuous
 62
   255
100
AcDbLine
 10
112.9128208983
 20
220.7299322465
 30
0.0
 11
113.2190485468
 21
221.0361598949
 31
0.0
  0
LINE
  5
480
330
21F
100
AcDbEntity
  8
0
  6
Continuous
 62
   255
100
AcDbLine
 10
83.9009698715
 20
172.1269579827
 30
0.0
 11
84.20719752
 21
171.8207303342
 31
0.0
  0
LINE
  5
481
330
21F
100
AcDbEntity
  8
0
  6
Continuous
 62
   255
100
AcDbLine
 10
85.5479956077
 20
170.4799322465
 30
0.0
 11
85.2417679592
 21
170.7861598949
 31
0.0
  0
LINE
  5
482
330
21F
100
AcDbEntity
  8
0
  6
Continuous
 62
   255
100
AcDbLine
 10
85.27947441630002
 20
169.8515213259
 30
0.0
 11
85.01413791199999
 21
170.2534451146
 31
0.0
  0
LINE
  5
483
330
21F
100
AcDbEntity
  8
0
  6
Continuous
 62
   255
100
AcDbLine
 10
84.16949106289996
 20
172.7553689032
 30
0.0
 11
84.43482756719999
 21
172.3534451146
 31
0.0
  0
LINE
  5
484
330
21F
100
AcDbEntity
  8
0
  6
Continuous
 62
   255
100
AcDbLine
 10
85.01413791199999
 20
172.3534451146
 30
0.0
 11
85.2417679592
 21
171.8207303342
 31
0.0
  0
LINE
  5
485
330
21F
100
AcDbEntity
  8
0
  6
Continuous
 62
   255
100
AcDbLine
 10
85.27947441630002
 20
172.7553689032
 30
0.0
 11
85.5479956077
 21
172.1269579827
 31
0.0
  0
LINE
  5
486
330
21F
100
AcDbEntity
  8
0
  6
Continuous
 62
   255
100
AcDbLine
 10
83.9009698715
 20
172.1269579827
 30
0.0
 11
84.16949106289996
 21
172.7553689032
 31
0.0
  0
LINE
  5
487
330
21F
100
AcDbEntity
  8
0
  6
Continuous
 62
   255
100
AcDbLine
 10
84.43482756719999
 20
172.3534451146
 30
0.0
 11
84.20719752
 21
171.8207303342
 31
0.0
  0
LINE
  5
488
330
21F
100
AcDbEntity
  8
0
  6
Continuous
 62
   255
100
AcDbLine
 10
114.2913254431
 20
223.0053689032
 30
0.0
 11
114.0259889388
 21
222.6034451146
 31
0.0
  0
LINE
  5
489
330
21F
100
AcDbEntity
  8
0
  6
Continuous
 62
   255
100
AcDbLine
 10
83.27255895090001
 20
171.8584367913
 30
0.0
 11
83.67448273959999
 21
171.593100287
 31
0.0
  0
LINE
  5
48A
330
21F
100
AcDbEntity
  8
0
  6
Continuous
 62
   255
100
AcDbLine
 10
86.17640652819998
 20
170.7484534379
 30
0.0
 11
85.77448273959998
 21
171.0137899422
 31
0.0
  0
LINE
  5
48B
330
21F
100
AcDbEntity
  8
0
  6
Continuous
 62
   255
100
AcDbLine
 10
85.01413791199999
 20
170.2534451146
 30
0.0
 11
85.2417679592
 21
170.7861598949
 31
0.0
  0
LINE
  5
48C
330
21F
100
AcDbEntity
  8
0
  6
Continuous
 62
   255
100
AcDbLine
 10
85.5479956077
 20
170.4799322465
 30
0.0
 11
85.27947441630002
 21
169.8515213259
 31
0.0
  0
LINE
  5
48D
330
21F
100
AcDbEntity
  8
0
  6
Continuous
 62
   255
100
AcDbLine
 10
113.1813420897
 20
220.1015213259
 30
0.0
 11
113.446678594
 21
220.5034451146
 31
0.0
  0
LINE
  5
48E
330
21F
100
AcDbEntity
  8
0
  6
Continuous
 62
   255
100
AcDbLine
 10
85.27947441630002
 20
172.7553689032
 30
0.0
 11
85.01413791199999
 21
172.3534451146
 31
0.0
  0
LINE
  5
48F
330
21F
100
AcDbEntity
  8
0
  6
Continuous
 62
   255
100
AcDbLine
 10
83.9009698715
 20
170.4799322465
 30
0.0
 11
83.27255895090001
 21
170.7484534379
 31
0.0
  0
LINE
  5
490
330
21F
100
AcDbEntity
  8
0
  6
Continuous
 62
   255
100
AcDbLine
 10
83.67448273959999
 20
171.0137899422
 30
0.0
 11
84.20719752
 21
170.7861598949
 31
0.0
  0
LINE
  5
491
330
21F
100
AcDbEntity
  8
0
  6
Continuous
 62
   255
100
AcDbLine
 10
85.77448273959998
 20
171.593100287
 30
0.0
 11
85.2417679592
 21
171.8207303342
 31
0.0
  0
LINE
  5
492
330
21F
100
AcDbEntity
  8
0
  6
Continuous
 62
   255
100
AcDbLine
 10
85.5479956077
 20
172.1269579827
 30
0.0
 11
86.17640652819998
 21
171.8584367913
 31
0.0
  0
LINE
  5
493
330
21F
100
AcDbEntity
  8
0
  6
Continuous
 62
   255
100
AcDbLine
 10
112.9128208983
 20
222.3769579827
 30
0.0
 11
113.1813420897
 21
223.0053689032
 31
0.0
  0
LINE
  5
494
330
21F
100
AcDbEntity
  8
0
  6
Continuous
 62
   255
100
AcDbLine
 10
113.446678594
 20
222.6034451146
 30
0.0
 11
113.2190485468
 21
222.0707303342
 31
0.0
  0
LINE
  5
495
330
21F
100
AcDbEntity
  8
0
  6
Continuous
 62
   255
100
AcDbLine
 10
114.0259889388
 20
220.5034451146
 30
0.0
 11
114.253618986
 21
221.0361598949
 31
0.0
  0
LINE
  5
496
330
21F
100
AcDbEntity
  8
0
  6
Continuous
 62
   255
100
AcDbLine
 10
114.5598466345
 20
220.7299322465
 30
0.0
 11
114.2913254431
 21
220.1015213259
 31
0.0
  0
LINE
  5
497
330
21F
100
AcDbEntity
  8
0
  6
Continuous
 62
   255
100
AcDbLine
 10
84.16949106289996
 20
169.8515213259
 30
0.0
 11
84.43482756719999
 21
170.2534451146
 31
0.0
  0
LINE
  5
498
330
21F
100
AcDbEntity
  8
0
  6
Continuous
 62
   255
100
AcDbLine
 10
85.5479956077
 20
172.1269579827
 30
0.0
 11
85.2417679592
 21
171.8207303342
 31
0.0
  0
LINE
  5
499
330
21F
100
AcDbEntity
  8
0
  6
Continuous
 62
   255
100
AcDbLine
 10
83.9009698715
 20
170.4799322465
 30
0.0
 11
84.20719752
 21
170.7861598949
 31
0.0
  0
LINE
  5
49A
330
21F
100
AcDbEntity
  8
0
  6
Continuous
 62
   255
100
AcDbLine
 10
143.3031764699
 20
169.8515213259
 30
0.0
 11
142.1931931163999
 21
169.8515213259
 31
0.0
  0
LINE
  5
49B
330
21F
100
AcDbEntity
  8
0
  6
Continuous
 62
   255
100
AcDbLine
 10
85.27947441630002
 20
169.8515213259
 30
0.0
 11
84.16949106289996
 21
169.8515213259
 31
0.0
  0
LINE
  5
49C
330
21F
100
AcDbEntity
  8
0
  6
Continuous
 62
   255
100
AcDbLine
 10
83.27255895090001
 20
170.7484534379
 30
0.0
 11
83.67448273959999
 21
171.0137899422
 31
0.0
  0
LINE
  5
49D
330
21F
100
AcDbEntity
  8
0
  6
Continuous
 62
   255
100
AcDbLine
 10
86.17640652819998
 20
171.8584367913
 30
0.0
 11
85.77448273959998
 21
171.593100287
 31
0.0
  0
LINE
  5
49E
330
21F
100
AcDbEntity
  8
0
  6
Continuous
 62
   255
100
AcDbLine
 10
84.43482756719999
 20
170.2534451146
 30
0.0
 11
85.01413791199999
 21
170.2534451146
 31
0.0
  0
LINE
  5
49F
330
21F
100
AcDbEntity
  8
0
  6
Continuous
 62
   255
100
AcDbLine
 10
142.4585296207
 20
170.2534451146
 30
0.0
 11
143.0378399656
 21
170.2534451146
 31
0.0
  0
LINE
  5
4A0
330
21F
100
AcDbEntity
  8
0
  6
Continuous
 62
   255
100
AcDbLine
 10
143.0378399656
 20
172.3534451146
 30
0.0
 11
142.4585296207
 21
172.3534451146
 31
0.0
  0
LINE
  5
4A1
330
21F
100
AcDbEntity
  8
0
  6
Continuous
 62
   255
100
AcDbLine
 10
85.01413791199999
 20
172.3534451146
 30
0.0
 11
84.43482756719999
 21
172.3534451146
 31
0.0
  0
LINE
  5
4A2
330
21F
100
AcDbEntity
  8
0
  6
Continuous
 62
   255
100
AcDbLine
 10
84.16949106289996
 20
172.7553689032
 30
0.0
 11
85.27947441630002
 21
172.7553689032
 31
0.0
  0
LINE
  5
4A3
330
21F
100
AcDbEntity
  8
0
  6
Continuous
 62
   255
100
AcDbLine
 10
142.1931931163999
 20
172.7553689032
 30
0.0
 11
143.3031764699
 21
172.7553689032
 31
0.0
  0
LINE
  5
4A4
330
21F
100
AcDbEntity
  8
02___PRT_ALL_AXES
  6
CENTER
 62
     2
100
AcDbLine
 10
136.7173041549
 20
211.0344155031
 30
0.0
 11
133.6767449958
 21
207.993856344
 31
0.0
  0
LINE
  5
4A5
330
21F
100
AcDbEntity
  8
02___PRT_ALL_AXES
  6
CENTER
 62
     2
100
AcDbLine
 10
90.7553633778
 20
165.072474726
 30
0.0
 11
87.7148042187
 21
162.0319155669
 31
0.0
  0
LINE
  5
4A6
330
21F
100
AcDbEntity
  8
02___PRT_ALL_AXES
  6
CENTER
 62
     2
100
AcDbLine
 10
90.7553633778
 20
165.072474726
 30
0.0
 11
93.79592253690001
 21
168.1130338851
 31
0.0
  0
LINE
  5
4A7
330
21F
100
AcDbEntity
  8
02___PRT_ALL_AXES
  6
CENTER
 62
     2
100
AcDbLine
 10
136.7173041549
 20
211.0344155031
 30
0.0
 11
139.757863314
 21
214.0749746622
 31
0.0
  0
LINE
  5
4A8
330
21F
100
AcDbEntity
  8
02___PRT_ALL_AXES
  6
CENTER
 62
     2
100
AcDbLine
 10
84.72448273960003
 20
171.3034451146
 30
0.0
 11
81.4768874754
 21
169.4284451146
 31
0.0
  0
LINE
  5
4A9
330
21F
100
AcDbEntity
  8
02___PRT_ALL_AXES
  6
CENTER
 62
     2
100
AcDbLine
 10
84.72448273960003
 20
171.3034451146
 30
0.0
 11
87.97207800379998
 21
173.1784451146
 31
0.0
  0
LINE
  5
4AA
330
21F
100
AcDbEntity
  8
0
  6
Continuous
 62
   255
100
AcDbLine
 10
83.27255895090001
 20
171.8584367913
 30
0.0
 11
83.9009698715
 21
172.1269579827
 31
0.0
  0
LINE
  5
4AB
330
21F
100
AcDbEntity
  8
0
  6
Continuous
 62
   255
100
AcDbLine
 10
112.2844099777
 20
220.9984534379
 30
0.0
 11
112.2844099777
 21
222.1084367913
 31
0.0
  0
LINE
  5
4AC
330
21F
100
AcDbEntity
  8
0
  6
Continuous
 62
   255
100
AcDbLine
 10
112.5363337664
 20
151.1338621168
 30
0.0
 11
112.5363337664
 21
137.0032050139
 31
0.0
  0
LINE
  5
4AD
330
21F
100
AcDbEntity
  8
0
  6
Continuous
 62
   255
100
AcDbLine
 10
112.6863337664
 20
221.843100287
 30
0.0
 11
112.6863337664
 21
221.2637899422
 31
0.0
  0
LINE
  5
4AE
330
21F
100
AcDbEntity
  8
02_AXES
  6
CENTER
 62
     2
100
AcDbLine
 10
113.7363337664
 20
188.0534451145999
 30
0.0
 11
113.7363337664
 21
149.002512335
 31
0.0
  0
LINE
  5
4AF
330
21F
100
AcDbEntity
  8
0
  6
Continuous
 62
   255
100
AcDbLine
 10
113.7363337664
 20
151.0534451146
 30
0.0
 11
113.7363337664
 21
137.0032050139
 31
0.0
  0
LINE
  5
4B0
330
21F
100
AcDbEntity
  8
02_AXES
  6
CENTER
 62
     2
100
AcDbLine
 10
113.7363337664
 20
188.0534451145999
 30
0.0
 11
113.7363337664
 21
227.1043778941
 31
0.0
  0
LINE
  5
4B1
330
21F
100
AcDbEntity
  8
0
  6
Continuous
 62
   255
100
AcDbLine
 10
83.67448273959999
 20
171.593100287
 30
0.0
 11
84.20719752
 21
171.8207303342
 31
0.0
  0
LINE
  5
4B2
330
21F
100
AcDbEntity
  8
0
  6
Continuous
 62
   255
100
AcDbLine
 10
85.77448273959998
 20
171.0137899422
 30
0.0
 11
85.2417679592
 21
170.7861598949
 31
0.0
  0
LINE
  5
4B3
330
21F
100
AcDbEntity
  8
0
  6
Continuous
 62
   255
100
AcDbLine
 10
86.17640652819998
 20
170.7484534379
 30
0.0
 11
85.5479956077
 21
170.4799322465
 31
0.0
  0
LINE
  5
4B4
330
21F
100
AcDbEntity
  8
0
  6
Continuous
 62
   255
100
AcDbLine
 10
114.7863337664
 20
221.2637899422
 30
0.0
 11
114.7863337664
 21
221.843100287
 31
0.0
  0
LINE
  5
4B5
330
21F
100
AcDbEntity
  8
0
  6
Continuous
 62
   255
100
AcDbLine
 10
114.9363337664
 20
151.1338590295
 30
0.0
 11
114.9363337664
 21
137.0032050139
 31
0.0
  0
LINE
  5
4B6
330
21F
100
AcDbEntity
  8
0
  6
Continuous
 62
   255
100
AcDbLine
 10
115.188257555
 20
222.1084367913
 30
0.0
 11
115.188257555
 21
220.9984534379
 31
0.0
  0
LINE
  5
4B7
330
21F
100
AcDbEntity
  8
0
  6
Continuous
 62
   255
100
AcDbLine
 10
141.924671925
 20
170.4799322465
 30
0.0
 11
141.2962610045
 21
170.7484534379
 31
0.0
  0
LINE
  5
4B8
330
21F
100
AcDbEntity
  8
0
  6
Continuous
 62
   255
100
AcDbLine
 10
141.6981847932
 20
171.0137899422
 30
0.0
 11
142.2308995735
 21
170.7861598949
 31
0.0
  0
LINE
  5
4B9
330
21F
100
AcDbEntity
  8
0
  6
Continuous
 62
   255
100
AcDbLine
 10
143.7981847932
 20
171.593100287
 30
0.0
 11
143.2654700128
 21
171.8207303342
 31
0.0
  0
LINE
  5
4BA
330
21F
100
AcDbEntity
  8
0
  6
Continuous
 62
   255
100
AcDbLine
 10
143.5716976613
 20
172.1269579827
 30
0.0
 11
144.2001085818
 21
171.8584367913
 31
0.0
  0
LINE
  5
4BB
330
21F
100
AcDbEntity
  8
02_AXES
  6
CENTER
 62
     2
100
AcDbLine
 10
113.7363337664
 20
188.0534451145999
 30
0.0
 11
74.68540098680001
 21
188.0534451145999
 31
0.0
  0
LINE
  5
4BC
330
21F
100
AcDbEntity
  8
02_AXES
  6
CENTER
 62
     2
100
AcDbLine
 10
113.7363337664
 20
188.0534451145999
 30
0.0
 11
152.7872665459
 21
188.0534451145999
 31
0.0
  0
LINE
  5
4BD
330
21F
100
AcDbEntity
  8
0
  6
Continuous
 62
   255
100
AcDbLine
 10
141.2962610045
 20
171.8584367913
 30
0.0
 11
141.6981847932
 21
171.593100287
 31
0.0
  0
LINE
  5
4BE
330
21F
100
AcDbEntity
  8
02___PRT_ALL_AXES
  6
CENTER
 62
     2
100
AcDbLine
 10
90.7553633778
 20
211.0344155031
 30
0.0
 11
93.79592253690001
 21
207.993856344
 31
0.0
  0
LINE
  5
4BF
330
21F
100
AcDbEntity
  8
02___PRT_ALL_AXES
  6
CENTER
 62
     2
100
AcDbLine
 10
136.7173041549
 20
165.072474726
 30
0.0
 11
139.757863314
 21
162.0319155669
 31
0.0
  0
LINE
  5
4C0
330
21F
100
AcDbEntity
  8
02___PRT_ALL_AXES
  6
CENTER
 62
     2
100
AcDbLine
 10
136.7173041549
 20
165.072474726
 30
0.0
 11
133.6767449958
 21
168.1130338851
 31
0.0
  0
LINE
  5
4C1
330
21F
100
AcDbEntity
  8
02___PRT_ALL_AXES
  6
CENTER
 62
     2
100
AcDbLine
 10
90.7553633778
 20
211.0344155031
 30
0.0
 11
87.7148042187
 21
214.0749746622
 31
0.0
  0
LINE
  5
4C2
330
21F
100
AcDbEntity
  8
0
  6
Continuous
 62
   255
100
AcDbLine
 10
144.2001085818
 20
170.7484534379
 30
0.0
 11
143.7981847932
 21
171.0137899422
 31
0.0
  0
LINE
  5
4C3
330
21F
100
AcDbEntity
  8
0
  6
Continuous
 62
   255
100
AcDbLine
 10
141.924671925
 20
172.1269579827
 30
0.0
 11
142.2308995735
 21
171.8207303342
 31
0.0
  0
LINE
  5
4C4
330
21F
100
AcDbEntity
  8
0
  6
Continuous
 62
   255
100
AcDbLine
 10
143.5716976613
 20
170.4799322465
 30
0.0
 11
143.2654700128
 21
170.7861598949
 31
0.0
  0
LINE
  5
4C5
330
21F
100
AcDbEntity
  8
0
  6
Continuous
 62
   255
100
AcDbLine
 10
113.1813420897
 20
220.1015213259
 30
0.0
 11
112.9128208983
 21
220.7299322465
 31
0.0
  0
LINE
  5
4C6
330
21F
100
AcDbEntity
  8
0
  6
Continuous
 62
   255
100
AcDbLine
 10
113.446678594
 20
220.5034451146
 30
0.0
 11
113.2190485468
 21
221.0361598949
 31
0.0
  0
LINE
  5
4C7
330
21F
100
AcDbEntity
  8
0
  6
Continuous
 62
   255
100
AcDbLine
 10
141.2962610045
 20
171.8584367913
 30
0.0
 11
141.924671925
 21
172.1269579827
 31
0.0
  0
LINE
  5
4C8
330
21F
100
AcDbEntity
  8
0
  6
Continuous
 62
   255
100
AcDbLine
 10
141.6981847932
 20
171.593100287
 30
0.0
 11
142.2308995735
 21
171.8207303342
 31
0.0
  0
LINE
  5
4C9
330
21F
100
AcDbEntity
  8
0
  6
Continuous
 62
   255
100
AcDbLine
 10
143.3031764699
 20
169.8515213259
 30
0.0
 11
143.0378399656
 21
170.2534451146
 31
0.0
  0
LINE
  5
4CA
330
21F
100
AcDbEntity
  8
0
  6
Continuous
 62
   255
100
AcDbLine
 10
142.1931931163999
 20
172.7553689032
 30
0.0
 11
142.4585296207
 21
172.3534451146
 31
0.0
  0
LINE
  5
4CB
330
21F
100
AcDbEntity
  8
0
  6
Continuous
 62
   255
100
AcDbLine
 10
114.0259889388
 20
222.6034451146
 30
0.0
 11
114.253618986
 21
222.0707303342
 31
0.0
  0
LINE
  5
4CC
330
21F
100
AcDbEntity
  8
0
  6
Continuous
 62
   255
100
AcDbLine
 10
114.2913254431
 20
223.0053689032
 30
0.0
 11
114.5598466345
 21
222.3769579827
 31
0.0
  0
LINE
  5
4CD
330
21F
100
AcDbEntity
  8
0
  6
Continuous
 62
   255
100
AcDbLine
 10
143.7981847932
 20
171.0137899422
 30
0.0
 11
143.2654700128
 21
170.7861598949
 31
0.0
  0
LINE
  5
4CE
330
21F
100
AcDbEntity
  8
0
  6
Continuous
 62
   255
100
AcDbLine
 10
144.2001085818
 20
170.7484534379
 30
0.0
 11
143.5716976613
 21
170.4799322465
 31
0.0
  0
LINE
  5
4CF
330
21F
100
AcDbEntity
  8
0
  6
Continuous
 62
   255
100
AcDbLine
 10
114.2913254431
 20
220.1015213259
 30
0.0
 11
114.0259889388
 21
220.5034451146
 31
0.0
  0
LINE
  5
4D0
330
21F
100
AcDbEntity
  8
0
  6
Continuous
 62
   255
100
AcDbLine
 10
113.1813420897
 20
223.0053689032
 30
0.0
 11
113.446678594
 21
222.6034451146
 31
0.0
  0
LINE
  5
4D1
330
21F
100
AcDbEntity
  8
0
  6
Continuous
 62
   255
100
AcDbLine
 10
142.1931931163999
 20
169.8515213259
 30
0.0
 11
141.924671925
 21
170.4799322465
 31
0.0
  0
LINE
  5
4D2
330
21F
100
AcDbEntity
  8
0
  6
Continuous
 62
   255
100
AcDbLine
 10
142.4585296207
 20
170.2534451146
 30
0.0
 11
142.2308995735
 21
170.7861598949
 31
0.0
  0
LINE
  5
4D3
330
21F
100
AcDbEntity
  8
0
  6
Continuous
 62
   255
100
AcDbLine
 10
141.2962610045
 20
170.7484534379
 30
0.0
 11
141.6981847932
 21
171.0137899422
 31
0.0
  0
LINE
  5
4D4
330
21F
100
AcDbEntity
  8
0
  6
Continuous
 62
   255
100
AcDbLine
 10
144.2001085818
 20
171.8584367913
 30
0.0
 11
143.7981847932
 21
171.593100287
 31
0.0
  0
LINE
  5
4D5
330
21F
100
AcDbEntity
  8
0
  6
Continuous
 62
   255
100
AcDbLine
 10
143.0378399656
 20
172.3534451146
 30
0.0
 11
143.2654700128
 21
171.8207303342
 31
0.0
  0
LINE
  5
4D6
330
21F
100
AcDbEntity
  8
0
  6
Continuous
 62
   255
100
AcDbLine
 10
143.3031764699
 20
172.7553689032
 30
0.0
 11
143.5716976613
 21
172.1269579827
 31
0.0
  0
LINE
  5
4D7
330
21F
100
AcDbEntity
  8
0
  6
Continuous
 62
   255
100
AcDbLine
 10
141.2962610045
 20
170.7484534379
 30
0.0
 11
141.2962610045
 21
171.8584367913
 31
0.0
  0
LINE
  5
4D8
330
21F
100
AcDbEntity
  8
0
  6
Continuous
 62
   255
100
AcDbLine
 10
141.6981847932
 20
171.593100287
 30
0.0
 11
141.6981847932
 21
171.0137899422
 31
0.0
  0
LINE
  5
4D9
330
21F
100
AcDbEntity
  8
0
  6
Continuous
 62
   255
100
AcDbLine
 10
143.7981847932
 20
171.0137899422
 30
0.0
 11
143.7981847932
 21
171.593100287
 31
0.0
  0
LINE
  5
4DA
330
21F
100
AcDbEntity
  8
0
  6
Continuous
 62
   255
100
AcDbLine
 10
144.2001085818
 20
171.8584367913
 30
0.0
 11
144.2001085818
 21
170.7484534379
 31
0.0
  0
LINE
  5
4DB
330
21F
100
AcDbEntity
  8
0
  6
Continuous
 62
   255
100
AcDbLine
 10
141.924671925
 20
172.1269579827
 30
0.0
 11
142.1931931163999
 21
172.7553689032
 31
0.0
  0
LINE
  5
4DC
330
21F
100
AcDbEntity
  8
0
  6
Continuous
 62
   255
100
AcDbLine
 10
142.4585296207
 20
172.3534451146
 30
0.0
 11
142.2308995735
 21
171.8207303342
 31
0.0
  0
LINE
  5
4DD
330
21F
100
AcDbEntity
  8
0
  6
Continuous
 62
   255
100
AcDbLine
 10
143.3031764699
 20
172.7553689032
 30
0.0
 11
143.0378399656
 21
172.3534451146
 31
0.0
  0
LINE
  5
4DE
330
21F
100
AcDbEntity
  8
0
  6
Continuous
 62
   255
100
AcDbLine
 10
142.1931931163999
 20
169.8515213259
 30
0.0
 11
142.4585296207
 21
170.2534451146
 31
0.0
  0
LINE
  5
4DF
330
21F
100
AcDbEntity
  8
0
  6
Continuous
 62
   255
100
AcDbLine
 10
143.5716976613
 20
172.1269579827
 30
0.0
 11
143.2654700128
 21
171.8207303342
 31
0.0
  0
LINE
  5
4E0
330
21F
100
AcDbEntity
  8
0
  6
Continuous
 62
   255
100
AcDbLine
 10
141.924671925
 20
170.4799322465
 30
0.0
 11
142.2308995735
 21
170.7861598949
 31
0.0
  0
LINE
  5
4E1
330
21F
100
AcDbEntity
  8
0
  6
Continuous
 62
   255
100
AcDbLine
 10
112.9128208983
 20
222.3769579827
 30
0.0
 11
113.2190485468
 21
222.0707303342
 31
0.0
  0
LINE
  5
4E2
330
21F
100
AcDbEntity
  8
0
  6
Continuous
 62
   255
100
AcDbLine
 10
114.5598466345
 20
220.7299322465
 30
0.0
 11
114.253618986
 21
221.0361598949
 31
0.0
  0
LWPOLYLINE
  5
4E3
330
21F
100
AcDbEntity
  8
02___PRT_ALL_AXES
  6
Continuous
 62
   255
100
AcDbPolyline
 90
        3
 70
     0
 43
0.0
 10
145.9783465837
 20
170.9448997101
 10
145.7466842204
 20
170.3198604026
 10
145.4545124918
 20
169.7409460892
  0
LINE
  5
4E4
330
21F
100
AcDbEntity
  8
0
  6
Continuous
 62
   255
100
AcDbLine
 10
143.0378399656
 20
170.2534451146
 30
0.0
 11
143.2654700128
 21
170.7861598949
 31
0.0
  0
LINE
  5
4E5
330
21F
100
AcDbEntity
  8
0
  6
Continuous
 62
   255
100
AcDbLine
 10
143.5716976613
 20
170.4799322465
 30
0.0
 11
143.3031764699
 21
169.8515213259
 31
0.0
  0
LWPOLYLINE
  5
4E6
330
21F
100
AcDbEntity
  8
02___PRT_ALL_AXES
  6
Continuous
 62
   255
100
AcDbPolyline
 90
        3
 70
     0
 43
0.0
 10
145.4545124918
 20
169.7409460892
 10
145.0986844907
 20
169.1977029526
 10
144.6737751170999
 20
168.6853156479
  0
LINE
  5
4E7
330
21F
100
AcDbEntity
  8
0
  6
Continuous
 62
   255
100
AcDbLine
 10
112.2844099777
 20
222.1084367913
 30
0.0
 11
112.6863337664
 21
221.843100287
 31
0.0
  0
LINE
  5
4E8
330
21F
100
AcDbEntity
  8
0
  6
Continuous
 62
   255
100
AcDbLine
 10
115.188257555
 20
220.9984534379
 30
0.0
 11
114.7863337664
 21
221.2637899422
 31
0.0
  0
LINE
  5
4E9
330
21F
100
AcDbEntity
  8
0
  6
Continuous
 62
   255
100
AcDbLine
 10
112.9128208983
 20
220.7299322465
 30
0.0
 11
112.2844099777
 21
220.9984534379
 31
0.0
  0
LINE
  5
4EA
330
21F
100
AcDbEntity
  8
0
  6
Continuous
 62
   255
100
AcDbLine
 10
112.6863337664
 20
221.2637899422
 30
0.0
 11
113.2190485468
 21
221.0361598949
 31
0.0
  0
LINE
  5
4EB
330
21F
100
AcDbEntity
  8
0
  6
Continuous
 62
   255
100
AcDbLine
 10
114.7863337664
 20
221.843100287
 30
0.0
 11
114.253618986
 21
222.0707303342
 31
0.0
  0
LINE
  5
4EC
330
21F
100
AcDbEntity
  8
0
  6
Continuous
 62
   255
100
AcDbLine
 10
114.5598466345
 20
222.3769579827
 30
0.0
 11
115.188257555
 21
222.1084367913
 31
0.0
  0
LINE
  5
4ED
330
21F
100
AcDbEntity
  8
0
  6
Continuous
 62
   255
100
AcDbLine
 10
114.2913254431
 20
220.1015213259
 30
0.0
 11
113.1813420897
 21
220.1015213259
 31
0.0
  0
LINE
  5
4EE
330
21F
100
AcDbEntity
  8
0
  6
Continuous
 62
   255
100
AcDbLine
 10
113.446678594
 20
220.5034451146
 30
0.0
 11
114.0259889388
 21
220.5034451146
 31
0.0
  0
LINE
  5
4EF
330
21F
100
AcDbEntity
  8
0
  6
Continuous
 62
   255
100
AcDbLine
 10
114.0259889388
 20
222.6034451146
 30
0.0
 11
113.446678594
 21
222.6034451146
 31
0.0
  0
LINE
  5
4F0
330
21F
100
AcDbEntity
  8
0
  6
Continuous
 62
   255
100
AcDbLine
 10
113.1813420897
 20
223.0053689032
 30
0.0
 11
114.2913254431
 21
223.0053689032
 31
0.0
  0
LWPOLYLINE
  5
4F1
330
21F
100
AcDbEntity
  8
02___PRT_ALL_AXES
  6
Continuous
 62
   255
100
AcDbPolyline
 90
        4
 70
     0
 43
0.0
 10
112.4317622998
 20
224.5301199857
 10
112.8696896505
 20
224.613123259
 10
113.3061058162
 20
224.6623655121
 10
113.7363337645
 20
224.6784431635
  0
LWPOLYLINE
  5
4F2
330
21F
100
AcDbEntity
  8
02___PRT_ALL_AXES
  6
Continuous
 62
   255
100
AcDbPolyline
 90
        3
 70
     0
 43
0.0
 10
113.7363337645
 20
224.6784431626
 10
114.3841586557
 20
224.6419708239
 10
115.0409052329
 20
224.5301199857
  0
LINE
  5
4F3
330
21F
100
AcDbEntity
  8
0
  6
Continuous
 62
   255
100
AcDbLine
 10
112.5363337664
 20
128.677175413
 30
0.0
 11
112.5363337664
 21
122.8493436796
 31
0.0
  0
LINE
  5
4F4
330
21F
100
AcDbEntity
  8
0
  6
Continuous
 62
   255
100
AcDbLine
 10
113.7363337664
 20
128.677175413
 30
0.0
 11
113.7363337664
 21
122.8380990029
 31
0.0
  0
LWPOLYLINE
  5
4F5
330
21F
100
AcDbEntity
  8
0
  6
Continuous
 62
   255
100
AcDbPolyline
 90
        4
 70
     0
 43
0.0
 10
112.6113337664
 20
122.8493436663
 10
112.6384637384
 20
122.9008515616
 10
112.7052581139
 20
123.0092381562
 10
112.7216996285
 20
123.0270728352
  0
LINE
  5
4F6
330
21F
100
AcDbEntity
  8
0
  6
Continuous
 62
   255
100
AcDbLine
 10
114.9363337664
 20
128.677175413
 30
0.0
 11
114.9363337664
 21
122.8493436796
 31
0.0
  0
LWPOLYLINE
  5
4F7
330
21F
100
AcDbEntity
  8
0
  6
Continuous
 62
   255
100
AcDbPolyline
 90
        9
 70
     0
 43
0.0
 10
112.5363337664
 20
122.8493436681
 10
112.5795267988
 20
122.9098313355
 10
112.6975426458
 20
123.0236212846
 10
112.8840034365
 20
123.0502628096
 10
113.0741434748
 20
122.9209218876
 10
113.2307254733
 20
122.772322305
 10
113.3944277356
 20
122.6767287528
 10
113.5795934339
 20
122.7218004724
 10
113.7363337664
 20
122.8380990029
  0
LWPOLYLINE
  5
4F8
330
21F
100
AcDbEntity
  8
0
  6
Continuous
 62
   255
100
AcDbPolyline
 90
       12
 70
     0
 43
0.0
 10
113.7363337664
 20
122.8380990029
 10
113.8479479461
 20
122.9285001384
 10
113.963837822
 20
123.004068735
 10
114.0917894436
 20
123.0335505056
 10
114.2115986467
 20
122.9804156766
 10
114.3187847591
 20
122.8827907164
 10
114.428518892
 20
122.7690197446
 10
114.5583358992
 20
122.6670251116
 10
114.6988769757
 20
122.6447729751
 10
114.8167219144
 20
122.7098442957
 10
114.9019571699
 20
122.8022376056
 10
114.9363337664
 20
122.8493437229
  0
LINE
  5
4F9
330
21F
100
AcDbEntity
  8
0
  6
Continuous
 62
     2
100
AcDbLine
 10
114.9363337664
 20
128.677175413
 30
0.0
 11
112.5363337664
 21
128.677175413
 31
0.0
  0
LINE
  5
4FA
330
21F
100
AcDbEntity
  8
0
  6
Continuous
 62
     2
100
AcDbLine
 10
343.4935639089
 20
137.0032050139
 30
0.0
 11
345.8935639089
 21
137.0032050139
 31
0.0
  0
LINE
  5
4FB
330
21F
100
AcDbEntity
  8
0
  6
Continuous
 62
   255
100
AcDbLine
 10
343.2416401203
 20
222.1084367913
 30
0.0
 11
343.8700510408001
 21
222.3769579827
 31
0.0
  0
LINE
  5
4FC
330
21F
100
AcDbEntity
  8
0
  6
Continuous
 62
   255
100
AcDbLine
 10
343.6435639089
 20
221.843100287
 30
0.0
 11
344.1762786893
 21
222.0707303342
 31
0.0
  0
LINE
  5
4FD
330
21F
100
AcDbEntity
  8
0
  6
Continuous
 62
   255
100
AcDbLine
 10
343.2416401203
 20
220.9984534379
 30
0.0
 11
343.6435639089
 21
221.2637899422
 31
0.0
  0
LINE
  5
4FE
330
21F
100
AcDbEntity
  8
0
  6
Continuous
 62
   255
100
AcDbLine
 10
345.7435639089
 20
221.2637899422
 30
0.0
 11
345.2108491286
 21
221.0361598949
 31
0.0
  0
LINE
  5
4FF
330
21F
100
AcDbEntity
  8
0
  6
Continuous
 62
   255
100
AcDbLine
 10
346.1454876976
 20
220.9984534379
 30
0.0
 11
345.5170767771
 21
220.7299322465
 31
0.0
  0
LINE
  5
500
330
21F
100
AcDbEntity
  8
0
  6
Continuous
 62
   255
100
AcDbLine
 10
314.2297890935
 20
170.7484534379
 30
0.0
 11
314.2297890935
 21
171.8584367913
 31
0.0
  0
LINE
  5
501
330
21F
100
AcDbEntity
  8
0
  6
Continuous
 62
   255
100
AcDbLine
 10
346.1454876976
 20
222.1084367913
 30
0.0
 11
345.7435639089
 21
221.843100287
 31
0.0
  0
LWPOLYLINE
  5
502
330
21F
100
AcDbEntity
  8
02___PRT_ALL_AXES
  6
Continuous
 62
   255
100
AcDbPolyline
 90
        3
 70
     0
 43
0.0
 10
313.7561225351
 20
168.6853156649
 10
313.3306563724
 20
169.1984573274
 10
312.9753851789
 20
169.7409460866
  0
LWPOLYLINE
  5
503
330
21F
100
AcDbEntity
  8
02___PRT_ALL_AXES
  6
Continuous
 62
   255
100
AcDbPolyline
 90
        3
 70
     0
 43
0.0
 10
312.9753851789
 20
169.7409460866
 10
312.6828469496
 20
170.3207005241
 10
312.4515510948
 20
170.9448996815
  0
LINE
  5
504
330
21F
100
AcDbEntity
  8
0
  6
Continuous
 62
   255
100
AcDbLine
 10
315.1267212055
 20
169.8515213259
 30
0.0
 11
314.858200014
 21
170.4799322465
 31
0.0
  0
LINE
  5
505
330
21F
100
AcDbEntity
  8
0
  6
Continuous
 62
   255
100
AcDbLine
 10
315.3920577097
 20
170.2534451146
 30
0.0
 11
315.1644276625
 21
170.7861598949
 31
0.0
  0
LINE
  5
506
330
21F
100
AcDbEntity
  8
0
  6
Continuous
 62
   255
100
AcDbLine
 10
314.6317128822
 20
171.593100287
 30
0.0
 11
314.6317128822
 21
171.0137899422
 31
0.0
  0
LINE
  5
507
330
21F
100
AcDbEntity
  8
0
  6
Continuous
 62
   255
100
AcDbLine
 10
316.7317128822
 20
171.0137899422
 30
0.0
 11
316.7317128822
 21
171.593100287
 31
0.0
  0
LINE
  5
508
330
21F
100
AcDbEntity
  8
0
  6
Continuous
 62
   255
100
AcDbLine
 10
317.1336366708
 20
171.8584367913
 30
0.0
 11
317.1336366708
 21
170.7484534379
 31
0.0
  0
LINE
  5
509
330
21F
100
AcDbEntity
  8
0
  6
Continuous
 62
   255
100
AcDbLine
 10
345.5170767771
 20
222.3769579827
 30
0.0
 11
345.2108491286
 21
222.0707303342
 31
0.0
  0
LINE
  5
50A
330
21F
100
AcDbEntity
  8
0
  6
Continuous
 62
   255
100
AcDbLine
 10
343.8700510408001
 20
220.7299322465
 30
0.0
 11
344.1762786893
 21
221.0361598949
 31
0.0
  0
LINE
  5
50B
330
21F
100
AcDbEntity
  8
0
  6
Continuous
 62
   255
100
AcDbLine
 10
316.5052257503
 20
170.4799322465
 30
0.0
 11
316.1989981018
 21
170.7861598949
 31
0.0
  0
LINE
  5
50C
330
21F
100
AcDbEntity
  8
0
  6
Continuous
 62
   255
100
AcDbLine
 10
314.858200014
 20
172.1269579827
 30
0.0
 11
315.1644276625
 21
171.8207303342
 31
0.0
  0
LINE
  5
50D
330
21F
100
AcDbEntity
  8
0
  6
Continuous
 62
   255
100
AcDbLine
 10
316.2367045589
 20
169.8515213259
 30
0.0
 11
315.9713680545999
 21
170.2534451146
 31
0.0
  0
LINE
  5
50E
330
21F
100
AcDbEntity
  8
0
  6
Continuous
 62
   255
100
AcDbLine
 10
315.1267212055
 20
172.7553689032
 30
0.0
 11
315.3920577097
 21
172.3534451146
 31
0.0
  0
LINE
  5
50F
330
21F
100
AcDbEntity
  8
0
  6
Continuous
 62
   255
100
AcDbLine
 10
315.9713680545999
 20
172.3534451146
 30
0.0
 11
316.1989981018
 21
171.8207303342
 31
0.0
  0
LINE
  5
510
330
21F
100
AcDbEntity
  8
0
  6
Continuous
 62
   255
100
AcDbLine
 10
316.2367045589
 20
172.7553689032
 30
0.0
 11
316.5052257503
 21
172.1269579827
 31
0.0
  0
LINE
  5
511
330
21F
100
AcDbEntity
  8
0
  6
Continuous
 62
   255
100
AcDbLine
 10
314.858200014
 20
172.1269579827
 30
0.0
 11
315.1267212055
 21
172.7553689032
 31
0.0
  0
LINE
  5
512
330
21F
100
AcDbEntity
  8
0
  6
Continuous
 62
   255
100
AcDbLine
 10
315.3920577097
 20
172.3534451146
 30
0.0
 11
315.1644276625
 21
171.8207303342
 31
0.0
  0
LINE
  5
513
330
21F
100
AcDbEntity
  8
0
  6
Continuous
 62
   255
100
AcDbLine
 10
345.2485555856
 20
223.0053689032
 30
0.0
 11
344.9832190814
 21
222.6034451146
 31
0.0
  0
LINE
  5
514
330
21F
100
AcDbEntity
  8
0
  6
Continuous
 62
   255
100
AcDbLine
 10
314.2297890935
 20
171.8584367913
 30
0.0
 11
314.6317128822
 21
171.593100287
 31
0.0
  0
LINE
  5
515
330
21F
100
AcDbEntity
  8
0
  6
Continuous
 62
   255
100
AcDbLine
 10
317.1336366708
 20
170.7484534379
 30
0.0
 11
316.7317128822
 21
171.0137899422
 31
0.0
  0
LINE
  5
516
330
21F
100
AcDbEntity
  8
0
  6
Continuous
 62
   255
100
AcDbLine
 10
315.9713680545999
 20
170.2534451146
 30
0.0
 11
316.1989981018
 21
170.7861598949
 31
0.0
  0
LINE
  5
517
330
21F
100
AcDbEntity
  8
0
  6
Continuous
 62
   255
100
AcDbLine
 10
316.5052257503
 20
170.4799322465
 30
0.0
 11
316.2367045589
 21
169.8515213259
 31
0.0
  0
LINE
  5
518
330
21F
100
AcDbEntity
  8
0
  6
Continuous
 62
   255
100
AcDbLine
 10
344.1385722322
 20
220.1015213259
 30
0.0
 11
344.4039087365
 21
220.5034451146
 31
0.0
  0
LINE
  5
519
330
21F
100
AcDbEntity
  8
0
  6
Continuous
 62
   255
100
AcDbLine
 10
316.2367045589
 20
172.7553689032
 30
0.0
 11
315.9713680545999
 21
172.3534451146
 31
0.0
  0
LINE
  5
51A
330
21F
100
AcDbEntity
  8
0
  6
Continuous
 62
   255
100
AcDbLine
 10
331.6935639089
 20
161.8534451146
 30
0.0
 11
357.6935639089
 21
161.8534451146
 31
0.0
  0
LINE
  5
51B
330
21F
100
AcDbEntity
  8
0
  6
Continuous
 62
   255
100
AcDbLine
 10
314.858200014
 20
170.4799322465
 30
0.0
 11
314.2297890935
 21
170.7484534379
 31
0.0
  0
LINE
  5
51C
330
21F
100
AcDbEntity
  8
0
  6
Continuous
 62
   255
100
AcDbLine
 10
314.6317128822
 20
171.0137899422
 30
0.0
 11
315.1644276625
 21
170.7861598949
 31
0.0
  0
LINE
  5
51D
330
21F
100
AcDbEntity
  8
0
  6
Continuous
 62
   255
100
AcDbLine
 10
316.7317128822
 20
171.593100287
 30
0.0
 11
316.1989981018
 21
171.8207303342
 31
0.0
  0
LINE
  5
51E
330
21F
100
AcDbEntity
  8
0
  6
Continuous
 62
   255
100
AcDbLine
 10
316.5052257503
 20
172.1269579827
 30
0.0
 11
317.1336366708
 21
171.8584367913
 31
0.0
  0
LINE
  5
51F
330
21F
100
AcDbEntity
  8
0
  6
Continuous
 62
   255
100
AcDbLine
 10
332.7935639089
 20
163.0534451146
 30
0.0
 11
332.6935639089
 21
163.1534451146
 31
0.0
  0
LINE
  5
520
330
21F
100
AcDbEntity
  8
0
  6
Continuous
 62
   255
100
AcDbLine
 10
329.6935639089
 20
188.0534451145999
 30
0.0
 11
329.6935639089
 21
163.8534451146
 31
0.0
  0
LINE
  5
521
330
21F
100
AcDbEntity
  8
0
  6
Continuous
 62
   255
100
AcDbLine
 10
343.8700510408001
 20
222.3769579827
 30
0.0
 11
344.1385722322
 21
223.0053689032
 31
0.0
  0
LINE
  5
522
330
21F
100
AcDbEntity
  8
0
  6
Continuous
 62
   255
100
AcDbLine
 10
344.4039087365
 20
222.6034451146
 30
0.0
 11
344.1762786893
 21
222.0707303342
 31
0.0
  0
LINE
  5
523
330
21F
100
AcDbEntity
  8
0
  6
Continuous
 62
   255
100
AcDbLine
 10
344.9832190814
 20
220.5034451146
 30
0.0
 11
345.2108491286
 21
221.0361598949
 31
0.0
  0
LINE
  5
524
330
21F
100
AcDbEntity
  8
0
  6
Continuous
 62
   255
100
AcDbLine
 10
345.5170767771
 20
220.7299322465
 30
0.0
 11
345.2485555856
 21
220.1015213259
 31
0.0
  0
LINE
  5
525
330
21F
100
AcDbEntity
  8
0
  6
Continuous
 62
   255
100
AcDbLine
 10
315.1267212055
 20
169.8515213259
 30
0.0
 11
315.3920577097
 21
170.2534451146
 31
0.0
  0
LINE
  5
526
330
21F
100
AcDbEntity
  8
0
  6
Continuous
 62
   255
100
AcDbLine
 10
358.1935639089
 20
162.9534451146
 30
0.0
 11
353.1935639089
 21
162.9534451146
 31
0.0
  0
LINE
  5
527
330
21F
100
AcDbEntity
  8
0
  6
Continuous
 62
   255
100
AcDbLine
 10
336.1935639089
 20
162.9534451146
 30
0.0
 11
331.1935639089
 21
162.9534451146
 31
0.0
  0
LINE
  5
528
330
21F
100
AcDbEntity
  8
0
  6
Continuous
 62
   255
100
AcDbLine
 10
332.7935639089
 20
163.0534451146
 30
0.0
 11
335.7935639089
 21
163.0534451146
 31
0.0
  0
LINE
  5
529
330
21F
100
AcDbEntity
  8
0
  6
Continuous
 62
   255
100
AcDbLine
 10
353.5935639089
 20
163.0534451146
 30
0.0
 11
356.5935639089
 21
163.0534451146
 31
0.0
  0
LINE
  5
52A
330
21F
100
AcDbEntity
  8
0
  6
Continuous
 62
   255
100
AcDbLine
 10
332.6935639089
 20
163.1534451146
 30
0.0
 11
335.8935639089
 21
163.1534451146
 31
0.0
  0
LINE
  5
52B
330
21F
100
AcDbEntity
  8
0
  6
Continuous
 62
   255
100
AcDbLine
 10
353.4935639089
 20
163.1534451146
 30
0.0
 11
356.6935639089
 21
163.1534451146
 31
0.0
  0
LINE
  5
52C
330
21F
100
AcDbEntity
  8
0
  6
Continuous
 62
   255
100
AcDbLine
 10
353.1935639089
 20
163.3534451146
 30
0.0
 11
336.1935639089
 21
163.3534451146
 31
0.0
  0
LINE
  5
52D
330
21F
100
AcDbEntity
  8
0
  6
Continuous
 62
   255
100
AcDbLine
 10
331.1935639089
 20
165.3534451146
 30
0.0
 11
335.9935639089
 21
165.3534451146
 31
0.0
  0
LINE
  5
52E
330
21F
100
AcDbEntity
  8
0
  6
Continuous
 62
   255
100
AcDbLine
 10
353.3935639089
 20
165.3534451146
 30
0.0
 11
358.1935639089
 21
165.3534451146
 31
0.0
  0
LINE
  5
52F
330
21F
100
AcDbEntity
  8
0
  6
Continuous
 62
   255
100
AcDbLine
 10
339.3735639089
 20
159.0077011146
 30
0.0
 11
339.6935639089
 21
158.4534451146
 31
0.0
  0
LINE
  5
530
330
21F
100
AcDbEntity
  8
0
  6
Continuous
 62
   255
100
AcDbLine
 10
331.1935639089
 20
162.9534451146
 30
0.0
 11
331.1935639089
 21
165.3534451146
 31
0.0
  0
LINE
  5
531
330
21F
100
AcDbEntity
  8
0
  6
Continuous
 62
   255
100
AcDbLine
 10
332.6935639089
 20
162.9534451146
 30
0.0
 11
332.6935639089
 21
163.1534451146
 31
0.0
  0
LINE
  5
532
330
21F
100
AcDbEntity
  8
0
  6
Continuous
 62
   255
100
AcDbLine
 10
332.7935639089
 20
162.9534451146
 30
0.0
 11
332.7935639089
 21
163.0534451146
 31
0.0
  0
LINE
  5
533
330
21F
100
AcDbEntity
  8
0
  6
Continuous
 62
   255
100
AcDbLine
 10
316.5052257503
 20
172.1269579827
 30
0.0
 11
316.1989981018
 21
171.8207303342
 31
0.0
  0
LINE
  5
534
330
21F
100
AcDbEntity
  8
0
  6
Continuous
 62
   255
100
AcDbLine
 10
314.858200014
 20
170.4799322465
 30
0.0
 11
315.1644276625
 21
170.7861598949
 31
0.0
  0
LINE
  5
535
330
21F
100
AcDbEntity
  8
0
  6
Continuous
 62
   255
100
AcDbLine
 10
338.3935639089
 20
167.8534451146
 30
0.0
 11
350.9935639089
 21
167.8534451146
 31
0.0
  0
LINE
  5
536
330
21F
100
AcDbEntity
  8
0
  6
Continuous
 62
   255
100
AcDbLine
 10
374.2604066124
 20
169.8515213259
 30
0.0
 11
373.150423259
 21
169.8515213259
 31
0.0
  0
LINE
  5
537
330
21F
100
AcDbEntity
  8
0
  6
Continuous
 62
   255
100
AcDbLine
 10
316.2367045589
 20
169.8515213259
 30
0.0
 11
315.1267212055
 21
169.8515213259
 31
0.0
  0
LINE
  5
538
330
21F
100
AcDbEntity
  8
0
  6
Continuous
 62
   255
100
AcDbLine
 10
339.0935639089
 20
166.6318701146
 30
0.0
 11
339.3735639089
 21
166.2981791146
 31
0.0
  0
LINE
  5
539
330
21F
100
AcDbEntity
  8
0
  6
Continuous
 62
   255
100
AcDbLine
 10
341.5935639089
 20
166.6318701146
 30
0.0
 11
341.8735639089
 21
166.2981791146
 31
0.0
  0
LINE
  5
53A
330
21F
100
AcDbEntity
  8
0
  6
Continuous
 62
   255
100
AcDbLine
 10
341.8735639089
 20
159.0077011146
 30
0.0
 11
342.1935639089
 21
158.4534451146
 31
0.0
  0
LINE
  5
53B
330
21F
100
AcDbEntity
  8
0
  6
Continuous
 62
   255
100
AcDbLine
 10
344.3735639089
 20
159.0077011146
 30
0.0
 11
344.6935639089
 21
158.4534451146
 31
0.0
  0
LINE
  5
53C
330
21F
100
AcDbEntity
  8
0
  6
Continuous
 62
   255
100
AcDbLine
 10
335.7935639089
 20
163.0534451146
 30
0.0
 11
335.7935639089
 21
162.9534451146
 31
0.0
  0
LINE
  5
53D
330
21F
100
AcDbEntity
  8
0
  6
Continuous
 62
   255
100
AcDbLine
 10
335.8935639089
 20
163.1534451146
 30
0.0
 11
335.8935639089
 21
162.9534451146
 31
0.0
  0
LINE
  5
53E
330
21F
100
AcDbEntity
  8
0
  6
Continuous
 62
   255
100
AcDbLine
 10
336.1935639089
 20
163.3534451146
 30
0.0
 11
336.1935639089
 21
162.9534451146
 31
0.0
  0
LINE
  5
53F
330
21F
100
AcDbEntity
  8
0
  6
Continuous
 62
   255
100
AcDbLine
 10
337.1935639089
 20
166.5534451145999
 30
0.0
 11
337.1935639089
 21
166.6534451146
 31
0.0
  0
LINE
  5
540
330
21F
100
AcDbEntity
  8
0
  6
Continuous
 62
   255
100
AcDbLine
 10
314.2297890935
 20
170.7484534379
 30
0.0
 11
314.6317128822
 21
171.0137899422
 31
0.0
  0
LINE
  5
541
330
21F
100
AcDbEntity
  8
0
  6
Continuous
 62
   255
100
AcDbLine
 10
317.1336366708
 20
171.8584367913
 30
0.0
 11
316.7317128822
 21
171.593100287
 31
0.0
  0
LINE
  5
542
330
21F
100
AcDbEntity
  8
0
  6
Continuous
 62
   255
100
AcDbLine
 10
335.6507099617
 20
185.1419519429
 30
0.0
 11
337.433571873
 21
186.1712879379
 31
0.0
  0
LINE
  5
543
330
21F
100
AcDbEntity
  8
0
  6
Continuous
 62
   255
100
AcDbLine
 10
315.3920577097
 20
170.2534451146
 30
0.0
 11
315.9713680545999
 21
170.2534451146
 31
0.0
  0
LINE
  5
544
330
21F
100
AcDbEntity
  8
0
  6
Continuous
 62
   255
100
AcDbLine
 10
373.4157597633
 20
170.2534451146
 30
0.0
 11
373.9950701081
 21
170.2534451146
 31
0.0
  0
LINE
  5
545
330
21F
100
AcDbEntity
  8
0
  6
Continuous
 62
   255
100
AcDbLine
 10
373.9950701081
 20
172.3534451146
 30
0.0
 11
373.4157597633
 21
172.3534451146
 31
0.0
  0
LINE
  5
546
330
21F
100
AcDbEntity
  8
0
  6
Continuous
 62
   255
100
AcDbLine
 10
315.9713680545999
 20
172.3534451146
 30
0.0
 11
315.3920577097
 21
172.3534451146
 31
0.0
  0
LINE
  5
547
330
21F
100
AcDbEntity
  8
0
  6
Continuous
 62
   255
100
AcDbLine
 10
315.1267212055
 20
172.7553689032
 30
0.0
 11
316.2367045589
 21
172.7553689032
 31
0.0
  0
LINE
  5
548
330
21F
100
AcDbEntity
  8
0
  6
Continuous
 62
   255
100
AcDbLine
 10
373.150423259
 20
172.7553689032
 30
0.0
 11
374.2604066124
 21
172.7553689032
 31
0.0
  0
LINE
  5
549
330
21F
100
AcDbEntity
  8
0
  6
Continuous
 62
   255
100
AcDbLine
 10
344.0935639089
 20
166.6318701146
 30
0.0
 11
344.3735639089
 21
166.2981791146
 31
0.0
  0
LINE
  5
54A
330
21F
100
AcDbEntity
  8
0
  6
Continuous
 62
   255
100
AcDbLine
 10
346.5935639089
 20
166.6318701146
 30
0.0
 11
346.8735639089
 21
166.2981791146
 31
0.0
  0
LINE
  5
54B
330
21F
100
AcDbEntity
  8
0
  6
Continuous
 62
   255
100
AcDbLine
 10
346.8735639089
 20
159.0077011146
 30
0.0
 11
347.1935639089
 21
158.4534451146
 31
0.0
  0
LINE
  5
54C
330
21F
100
AcDbEntity
  8
0
  6
Continuous
 62
   255
100
AcDbLine
 10
339.0935639089
 20
167.8534451146
 30
0.0
 11
339.0935639089
 21
166.6318701146
 31
0.0
  0
LINE
  5
54D
330
21F
100
AcDbEntity
  8
0
  6
Continuous
 62
   255
100
AcDbLine
 10
339.3735639089
 20
166.2981791146
 30
0.0
 11
339.3735639089
 21
163.3534451146
 31
0.0
  0
LINE
  5
54E
330
21F
100
AcDbEntity
  8
0
  6
Continuous
 62
   255
100
AcDbLine
 10
339.3735639089
 20
161.8534451146
 30
0.0
 11
339.3735639089
 21
159.0077011146
 31
0.0
  0
LINE
  5
54F
330
21F
100
AcDbEntity
  8
0
  6
Continuous
 62
   255
100
AcDbLine
 10
340.0135639089
 20
159.0077011146
 30
0.0
 11
340.0135639089
 21
161.8534451146
 31
0.0
  0
LINE
  5
550
330
21F
100
AcDbEntity
  8
0
  6
Continuous
 62
   255
100
AcDbLine
 10
340.0135639089
 20
163.3534451146
 30
0.0
 11
340.0135639089
 21
166.2981791146
 31
0.0
  0
LINE
  5
551
330
21F
100
AcDbEntity
  8
0
  6
Continuous
 62
   255
100
AcDbLine
 10
340.2935639089
 20
166.6318701146
 30
0.0
 11
340.2935639089
 21
167.8534451146
 31
0.0
  0
LINE
  5
552
330
21F
100
AcDbEntity
  8
0
  6
Continuous
 62
   255
100
AcDbLine
 10
355.5206361871
 20
199.4229000656
 30
0.0
 11
354.9808839774
 21
198.9699942858
 31
0.0
  0
LINE
  5
553
330
21F
100
AcDbEntity
  8
0
  6
Continuous
 62
   255
100
AcDbLine
 10
340.9932511952637
 20
187.1989346685915
 30
0.0
 11
347.9425317494543
 21
190.0198399937226
 31
0.0
  0
LINE
  5
554
330
21F
100
AcDbEntity
  8
0
  6
Continuous
 62
   255
100
AcDbLine
 10
348.3938766225719
 20
188.907955560634
 30
0.0
 11
341.4445960683812
 21
186.0870502355031
 31
0.0
  0
LINE
  5
555
330
21F
100
AcDbEntity
  8
0
  6
Continuous
 62
   255
100
AcDbLine
 10
357.2306405464
 20
196.2888388104
 30
0.0
 11
357.7703926628
 21
196.7417447033
 31
0.0
  0
LINE
  5
556
330
21F
100
AcDbEntity
  8
02___PRT_ALL_AXES
  6
CENTER
 62
     2
100
AcDbLine
 10
315.6817128822
 20
171.3034451146
 30
0.0
 11
312.434117618
 21
169.4284451146
 31
0.0
  0
LINE
  5
557
330
21F
100
AcDbEntity
  8
02___PRT_ALL_AXES
  6
CENTER
 62
     2
100
AcDbLine
 10
315.6817128822
 20
171.3034451146
 30
0.0
 11
318.9293081464
 21
173.1784451146
 31
0.0
  0
LINE
  5
558
330
21F
100
AcDbEntity
  8
0
  6
Continuous
 62
   255
100
AcDbLine
 10
339.4335720619
 20
182.7071860702
 30
0.0
 11
337.6507100062
 21
181.6778503262
 31
0.0
  0
LINE
  5
559
330
21F
100
AcDbEntity
  8
0
  6
Continuous
 62
   255
100
AcDbLine
 10
314.2297890935
 20
171.8584367913
 30
0.0
 11
314.858200014
 21
172.1269579827
 31
0.0
  0
LINE
  5
55A
330
21F
100
AcDbEntity
  8
0
  6
Continuous
 62
   255
100
AcDbLine
 10
358.9993182348
 20
192.564031902
 30
0.0
 11
356.6150255898
 21
191.8122675441999
 31
0.0
  0
LINE
  5
55B
330
21F
100
AcDbEntity
  8
0
  6
Continuous
 62
   255
100
AcDbLine
 10
353.5935639089
 20
163.0534451146
 30
0.0
 11
353.4935639089
 21
163.1534451146
 31
0.0
  0
LINE
  5
55C
330
21F
100
AcDbEntity
  8
0
  6
Continuous
 62
   255
100
AcDbLine
 10
349.0935639089
 20
166.6318701146
 30
0.0
 11
349.3735639089
 21
166.2981791146
 31
0.0
  0
LINE
  5
55D
330
21F
100
AcDbEntity
  8
0
  6
Continuous
 62
   255
100
AcDbLine
 10
349.3735639089
 20
159.0077011146
 30
0.0
 11
349.6935639089
 21
158.4534451146
 31
0.0
  0
LINE
  5
55E
330
21F
100
AcDbEntity
  8
0
  6
Continuous
 62
   255
100
AcDbLine
 10
341.5935639089
 20
167.8534451146
 30
0.0
 11
341.5935639089
 21
166.6318701146
 31
0.0
  0
LINE
  5
55F
330
21F
100
AcDbEntity
  8
0
  6
Continuous
 62
   255
100
AcDbLine
 10
341.8735639089
 20
166.2981791146
 30
0.0
 11
341.8735639089
 21
163.3534451146
 31
0.0
  0
LINE
  5
560
330
21F
100
AcDbEntity
  8
0
  6
Continuous
 62
   255
100
AcDbLine
 10
341.8735639089
 20
161.8534451146
 30
0.0
 11
341.8735639089
 21
159.0077011146
 31
0.0
  0
LINE
  5
561
330
21F
100
AcDbEntity
  8
0
  6
Continuous
 62
   255
100
AcDbLine
 10
342.5135639089
 20
159.0077011146
 30
0.0
 11
342.5135639089
 21
161.8534451146
 31
0.0
  0
LINE
  5
562
330
21F
100
AcDbEntity
  8
0
  6
Continuous
 62
   255
100
AcDbLine
 10
342.5135639089
 20
163.3534451146
 30
0.0
 11
342.5135639089
 21
166.2981791146
 31
0.0
  0
LINE
  5
563
330
21F
100
AcDbEntity
  8
0
  6
Continuous
 62
   255
100
AcDbLine
 10
342.6935637598
 20
197.3405328915
 30
0.0
 11
342.6935637598
 21
195.2818612169
 31
0.0
  0
LINE
  5
564
330
21F
100
AcDbEntity
  8
0
  6
Continuous
 62
   255
100
AcDbLine
 10
342.7935639089
 20
167.8534451146
 30
0.0
 11
342.7935639089
 21
166.6318701146
 31
0.0
  0
LINE
  5
565
330
21F
100
AcDbEntity
  8
0
  6
Continuous
 62
   255
100
AcDbLine
 10
343.2416401203
 20
220.9984534379
 30
0.0
 11
343.2416401203
 21
222.1084367913
 31
0.0
  0
LINE
  5
566
330
21F
100
AcDbEntity
  8
0
  6
Continuous
 62
   255
100
AcDbLine
 10
343.4935639089
 20
151.1338620516
 30
0.0
 11
343.4935639089
 21
137.0032050139
 31
0.0
  0
LINE
  5
567
330
21F
100
AcDbEntity
  8
0
  6
Continuous
 62
   255
100
AcDbLine
 10
343.5685639089
 20
151.128835993
 30
0.0
 11
343.5685639089
 21
137.0032050139
 31
0.0
  0
LINE
  5
568
330
21F
100
AcDbEntity
  8
0
  6
Continuous
 62
   255
100
AcDbLine
 10
343.6435639089
 20
221.843100287
 30
0.0
 11
343.6435639089
 21
221.2637899422
 31
0.0
  0
LINE
  5
569
330
21F
100
AcDbEntity
  8
0
  6
Continuous
 62
   255
100
AcDbLine
 10
344.0935639089
 20
166.6318701146
 30
0.0
 11
344.0935639089
 21
167.8534451146
 31
0.0
  0
LINE
  5
56A
330
21F
100
AcDbEntity
  8
0
  6
Continuous
 62
   255
100
AcDbLine
 10
344.3735639089
 20
166.2981791146
 30
0.0
 11
344.3735639089
 21
163.3534451146
 31
0.0
  0
LINE
  5
56B
330
21F
100
AcDbEntity
  8
0
  6
Continuous
 62
   255
100
AcDbLine
 10
344.3735639089
 20
161.8534451146
 30
0.0
 11
344.3735639089
 21
159.0077011146
 31
0.0
  0
LINE
  5
56C
330
21F
100
AcDbEntity
  8
02_AXES
  6
CENTER
 62
     2
100
AcDbLine
 10
344.6935639089
 20
188.0534451145999
 30
0.0
 11
344.6935639089
 21
149.740833598
 31
0.0
  0
LINE
  5
56D
330
21F
100
AcDbEntity
  8
0
  6
Continuous
 62
   255
100
AcDbLine
 10
344.6935639089
 20
151.0534451146
 30
0.0
 11
344.6935639089
 21
137.0032050139
 31
0.0
  0
LINE
  5
56E
330
21F
100
AcDbEntity
  8
02_AXES
  6
CENTER
 62
     2
100
AcDbLine
 10
344.6935639089
 20
188.0534451145999
 30
0.0
 11
344.6935639089
 21
226.3660566311
 31
0.0
  0
LINE
  5
56F
330
21F
100
AcDbEntity
  8
0
  6
Continuous
 62
   255
100
AcDbLine
 10
345.0135639089
 20
159.0077011146
 30
0.0
 11
345.0135639089
 21
161.8534451146
 31
0.0
  0
LINE
  5
570
330
21F
100
AcDbEntity
  8
0
  6
Continuous
 62
   255
100
AcDbLine
 10
345.0135639089
 20
163.3534451146
 30
0.0
 11
345.0135639089
 21
166.2981791146
 31
0.0
  0
LINE
  5
571
330
21F
100
AcDbEntity
  8
0
  6
Continuous
 62
   255
100
AcDbLine
 10
350.4654219089
 20
199.1410801146
 30
0.0
 11
351.6197939419
 21
201.3586071779
 31
0.0
  0
LINE
  5
572
330
21F
100
AcDbEntity
  8
0
  6
Continuous
 62
   255
100
AcDbLine
 10
314.6317128822
 20
171.593100287
 30
0.0
 11
315.1644276625
 21
171.8207303342
 31
0.0
  0
LINE
  5
573
330
21F
100
AcDbEntity
  8
0
  6
Continuous
 62
   255
100
AcDbLine
 10
316.7317128822
 20
171.0137899422
 30
0.0
 11
316.1989981018
 21
170.7861598949
 31
0.0
  0
LINE
  5
574
330
21F
100
AcDbEntity
  8
0
  6
Continuous
 62
   255
100
AcDbLine
 10
317.1336366708
 20
170.7484534379
 30
0.0
 11
316.5052257503
 21
170.4799322465
 31
0.0
  0
LINE
  5
575
330
21F
100
AcDbEntity
  8
0
  6
Continuous
 62
   255
100
AcDbLine
 10
345.2935639089
 20
167.8534451146
 30
0.0
 11
345.2935639089
 21
166.6318701146
 31
0.0
  0
LINE
  5
576
330
21F
100
AcDbEntity
  8
0
  6
Continuous
 62
   255
100
AcDbLine
 10
345.7435639089
 20
221.2637899422
 30
0.0
 11
345.7435639089
 21
221.843100287
 31
0.0
  0
LINE
  5
577
330
21F
100
AcDbEntity
  8
0
  6
Continuous
 62
   255
100
AcDbLine
 10
345.8185639089
 20
151.1288331077
 30
0.0
 11
345.8185639089
 21
137.0032050139
 31
0.0
  0
LINE
  5
578
330
21F
100
AcDbEntity
  8
0
  6
Continuous
 62
   255
100
AcDbLine
 10
345.8935639089
 20
151.1338589739
 30
0.0
 11
345.8935639089
 21
137.0032050139
 31
0.0
  0
LINE
  5
579
330
21F
100
AcDbEntity
  8
0
  6
Continuous
 62
   255
100
AcDbLine
 10
346.1454876976
 20
222.1084367913
 30
0.0
 11
346.1454876976
 21
220.9984534379
 31
0.0
  0
LINE
  5
57A
330
21F
100
AcDbEntity
  8
0
  6
Continuous
 62
   255
100
AcDbLine
 10
346.5935639089
 20
167.8534451146
 30
0.0
 11
346.5935639089
 21
166.6318701146
 31
0.0
  0
LINE
  5
57B
330
21F
100
AcDbEntity
  8
0
  6
Continuous
 62
   255
100
AcDbLine
 10
346.6935639935
 20
197.3405329128
 30
0.0
 11
346.6935639935
 21
195.2818612539
 31
0.0
  0
LINE
  5
57C
330
21F
100
AcDbEntity
  8
0
  6
Continuous
 62
   255
100
AcDbLine
 10
346.8735639089
 20
166.2981791146
 30
0.0
 11
346.8735639089
 21
163.3534451146
 31
0.0
  0
LINE
  5
57D
330
21F
100
AcDbEntity
  8
0
  6
Continuous
 62
   255
100
AcDbLine
 10
346.8735639089
 20
161.8534451146
 30
0.0
 11
346.8735639089
 21
159.0077011146
 31
0.0
  0
LINE
  5
57E
330
21F
100
AcDbEntity
  8
0
  6
Continuous
 62
   255
100
AcDbLine
 10
347.5135639089
 20
159.0077011146
 30
0.0
 11
347.5135639089
 21
161.8534451146
 31
0.0
  0
LINE
  5
57F
330
21F
100
AcDbEntity
  8
0
  6
Continuous
 62
   255
100
AcDbLine
 10
347.5135639089
 20
163.3534451146
 30
0.0
 11
347.5135639089
 21
166.2981791146
 31
0.0
  0
LINE
  5
580
330
21F
100
AcDbEntity
  8
0
  6
Continuous
 62
   255
100
AcDbLine
 10
347.7935639089
 20
167.8534451146
 30
0.0
 11
347.7935639089
 21
166.6318701146
 31
0.0
  0
LINE
  5
581
330
21F
100
AcDbEntity
  8
0
  6
Continuous
 62
   255
100
AcDbLine
 10
372.8819020676001
 20
170.4799322465
 30
0.0
 11
372.2534911471
 21
170.7484534379
 31
0.0
  0
LINE
  5
582
330
21F
100
AcDbEntity
  8
0
  6
Continuous
 62
   255
100
AcDbLine
 10
372.6554149357
 20
171.0137899422
 30
0.0
 11
373.1881297161
 21
170.7861598949
 31
0.0
  0
LINE
  5
583
330
21F
100
AcDbEntity
  8
0
  6
Continuous
 62
   255
100
AcDbLine
 10
374.7554149357
 20
171.593100287
 30
0.0
 11
374.2227001553
 21
171.8207303342
 31
0.0
  0
LINE
  5
584
330
21F
100
AcDbEntity
  8
0
  6
Continuous
 62
   255
100
AcDbLine
 10
374.5289278037999
 20
172.1269579827
 30
0.0
 11
375.1573387244
 21
171.8584367913
 31
0.0
  0
LINE
  5
585
330
21F
100
AcDbEntity
  8
0
  6
Continuous
 62
   255
100
AcDbLine
 10
351.7364179322
 20
181.6778504594
 30
0.0
 11
349.9535558937
 21
182.7071862057
 31
0.0
  0
LINE
  5
586
330
21F
100
AcDbEntity
  8
0
  6
Continuous
 62
   255
100
AcDbLine
 10
331.6167355414
 20
196.741744423
 30
0.0
 11
332.1564872717
 21
196.2888388126
 31
0.0
  0
LINE
  5
587
330
21F
100
AcDbEntity
  8
0
  6
Continuous
 62
   255
100
AcDbLine
 10
341.4445960683812
 20
186.0870502355031
 30
0.0
 11
340.9932511952637
 21
187.1989346685915
 31
0.0
  0
LINE
  5
588
330
21F
100
AcDbEntity
  8
0
  6
Continuous
 62
   255
100
AcDbLine
 10
337.7673346628
 20
201.3586075875
 30
0.0
 11
338.9217067015
 21
199.1410796495
 31
0.0
  0
LINE
  5
589
330
21F
100
AcDbEntity
  8
0
  6
Continuous
 62
   255
100
AcDbLine
 10
349.0935639089
 20
167.8534451146
 30
0.0
 11
349.0935639089
 21
166.6318701146
 31
0.0
  0
LINE
  5
58A
330
21F
100
AcDbEntity
  8
0
  6
Continuous
 62
   255
100
AcDbLine
 10
349.3735639089
 20
166.2981791146
 30
0.0
 11
349.3735639089
 21
163.3534451146
 31
0.0
  0
LINE
  5
58B
330
21F
100
AcDbEntity
  8
0
  6
Continuous
 62
   255
100
AcDbLine
 10
349.3735639089
 20
161.8534451146
 30
0.0
 11
349.3735639089
 21
159.0077011146
 31
0.0
  0
LINE
  5
58C
330
21F
100
AcDbEntity
  8
0
  6
Continuous
 62
   255
100
AcDbLine
 10
350.0135639089
 20
159.0077011146
 30
0.0
 11
350.0135639089
 21
161.8534451146
 31
0.0
  0
LINE
  5
58D
330
21F
100
AcDbEntity
  8
0
  6
Continuous
 62
   255
100
AcDbLine
 10
350.0135639089
 20
163.3534451146
 30
0.0
 11
350.0135639089
 21
166.2981791146
 31
0.0
  0
LINE
  5
58E
330
21F
100
AcDbEntity
  8
0
  6
Continuous
 62
   255
100
AcDbLine
 10
350.2935639089
 20
167.8534451146
 30
0.0
 11
350.2935639089
 21
166.6318701146
 31
0.0
  0
LINE
  5
58F
330
21F
100
AcDbEntity
  8
0
  6
Continuous
 62
   255
100
AcDbLine
 10
352.1935639089
 20
166.6534451146
 30
0.0
 11
352.1935639089
 21
166.5534451145999
 31
0.0
  0
LINE
  5
590
330
21F
100
AcDbEntity
  8
0
  6
Continuous
 62
   255
100
AcDbLine
 10
339.6935639089
 20
158.4534451146
 30
0.0
 11
340.0135639089
 21
159.0077011146
 31
0.0
  0
LINE
  5
591
330
21F
100
AcDbEntity
  8
0
  6
Continuous
 62
   255
100
AcDbLine
 10
340.0135639089
 20
166.2981791146
 30
0.0
 11
340.2935639089
 21
166.6318701146
 31
0.0
  0
LINE
  5
592
330
21F
100
AcDbEntity
  8
0
  6
Continuous
 62
   255
100
AcDbLine
 10
342.5135639089
 20
166.2981791146
 30
0.0
 11
342.7935639089
 21
166.6318701146
 31
0.0
  0
LINE
  5
593
330
21F
100
AcDbEntity
  8
0
  6
Continuous
 62
   255
100
AcDbLine
 10
335.8935639089
 20
163.1534451146
 30
0.0
 11
335.7935639089
 21
163.0534451146
 31
0.0
  0
LINE
  5
594
330
21F
100
AcDbEntity
  8
02_AXES
  6
CENTER
 62
     2
100
AcDbLine
 10
344.6935639089
 20
188.0534451145999
 30
0.0
 11
306.3809523924
 21
188.0534451145999
 31
0.0
  0
LINE
  5
595
330
21F
100
AcDbEntity
  8
02_AXES
  6
CENTER
 62
     2
100
AcDbLine
 10
344.6935639089
 20
188.0534451145999
 30
0.0
 11
383.0061754255
 21
188.0534451145999
 31
0.0
  0
LINE
  5
596
330
21F
100
AcDbEntity
  8
0
  6
Continuous
 62
   255
100
AcDbLine
 10
332.7721029089
 20
191.8122671146
 30
0.0
 11
330.3878096735
 21
192.5640321888
 31
0.0
  0
LINE
  5
597
330
21F
100
AcDbEntity
  8
02___PRT_ALL_AXES
  6
CENTER
 62
     2
100
AcDbLine
 10
373.7054149357
 20
171.3034451146
 30
0.0
 11
370.4578196715
 21
173.1784451146
 31
0.0
  0
LINE
  5
598
330
21F
100
AcDbEntity
  8
02___PRT_ALL_AXES
  6
CENTER
 62
     2
100
AcDbLine
 10
373.7054149357
 20
171.3034451146
 30
0.0
 11
376.9530101999
 21
169.4284451146
 31
0.0
  0
LINE
  5
599
330
21F
100
AcDbEntity
  8
0
  6
Continuous
 62
   255
100
AcDbLine
 10
351.9535559217
 20
186.1712878484
 30
0.0
 11
353.7364178678
 21
185.1419519789
 31
0.0
  0
LINE
  5
59A
330
21F
100
AcDbEntity
  8
0
  6
Continuous
 62
   255
100
AcDbLine
 10
372.2534911471
 20
171.8584367913
 30
0.0
 11
372.6554149357
 21
171.593100287
 31
0.0
  0
LINE
  5
59B
330
21F
100
AcDbEntity
  8
0
  6
Continuous
 62
   255
100
AcDbLine
 10
334.4062437743
 20
198.9699942275
 30
0.0
 11
333.8664916307
 21
199.4229000656
 31
0.0
  0
LINE
  5
59C
330
21F
100
AcDbEntity
  8
0
  6
Continuous
 62
   255
100
AcDbLine
 10
353.1935639089
 20
162.9534451146
 30
0.0
 11
353.1935639089
 21
163.3534451146
 31
0.0
  0
LINE
  5
59D
330
21F
100
AcDbEntity
  8
0
  6
Continuous
 62
   255
100
AcDbLine
 10
353.4935639089
 20
162.9534451146
 30
0.0
 11
353.4935639089
 21
163.1534451146
 31
0.0
  0
LINE
  5
59E
330
21F
100
AcDbEntity
  8
0
  6
Continuous
 62
   255
100
AcDbLine
 10
353.5935639089
 20
162.9534451146
 30
0.0
 11
353.5935639089
 21
163.0534451146
 31
0.0
  0
LINE
  5
59F
330
21F
100
AcDbEntity
  8
0
  6
Continuous
 62
   255
100
AcDbLine
 10
356.5935639089
 20
163.0534451146
 30
0.0
 11
356.5935639089
 21
162.9534451146
 31
0.0
  0
LINE
  5
5A0
330
21F
100
AcDbEntity
  8
0
  6
Continuous
 62
   255
100
AcDbLine
 10
356.6935639089
 20
163.1534451146
 30
0.0
 11
356.6935639089
 21
162.9534451146
 31
0.0
  0
LINE
  5
5A1
330
21F
100
AcDbEntity
  8
0
  6
Continuous
 62
   255
100
AcDbLine
 10
342.1935639089
 20
158.4534451146
 30
0.0
 11
342.5135639089
 21
159.0077011146
 31
0.0
  0
LINE
  5
5A2
330
21F
100
AcDbEntity
  8
0
  6
Continuous
 62
   255
100
AcDbLine
 10
344.6935639089
 20
158.4534451146
 30
0.0
 11
345.0135639089
 21
159.0077011146
 31
0.0
  0
LINE
  5
5A3
330
21F
100
AcDbEntity
  8
0
  6
Continuous
 62
   255
100
AcDbLine
 10
345.0135639089
 20
166.2981791146
 30
0.0
 11
345.2935639089
 21
166.6318701146
 31
0.0
  0
LINE
  5
5A4
330
21F
100
AcDbEntity
  8
0
  6
Continuous
 62
   255
100
AcDbLine
 10
347.5135639089
 20
166.2981791146
 30
0.0
 11
347.7935639089
 21
166.6318701146
 31
0.0
  0
LINE
  5
5A5
330
21F
100
AcDbEntity
  8
0
  6
Continuous
 62
   255
100
AcDbLine
 10
375.1573387244
 20
170.7484534379
 30
0.0
 11
374.7554149357
 21
171.0137899422
 31
0.0
  0
LINE
  5
5A6
330
21F
100
AcDbEntity
  8
0
  6
Continuous
 62
   255
100
AcDbLine
 10
347.9425317494543
 20
190.0198399937226
 30
0.0
 11
348.3938766225719
 21
188.907955560634
 31
0.0
  0
LINE
  5
5A7
330
21F
100
AcDbEntity
  8
0
  6
Continuous
 62
   255
100
AcDbLine
 10
358.1935639089
 20
165.3534451146
 30
0.0
 11
358.1935639089
 21
162.9534451146
 31
0.0
  0
LINE
  5
5A8
330
21F
100
AcDbEntity
  8
0
  6
Continuous
 62
   255
100
AcDbLine
 10
359.6935639089
 20
163.8534451146
 30
0.0
 11
359.6935639089
 21
188.0534451145999
 31
0.0
  0
LINE
  5
5A9
330
21F
100
AcDbEntity
  8
0
  6
Continuous
 62
   255
100
AcDbLine
 10
347.1935639089
 20
158.4534451146
 30
0.0
 11
347.5135639089
 21
159.0077011146
 31
0.0
  0
LINE
  5
5AA
330
21F
100
AcDbEntity
  8
0
  6
Continuous
 62
   255
100
AcDbLine
 10
349.6935639089
 20
158.4534451146
 30
0.0
 11
350.0135639089
 21
159.0077011146
 31
0.0
  0
LINE
  5
5AB
330
21F
100
AcDbEntity
  8
0
  6
Continuous
 62
   255
100
AcDbLine
 10
350.0135639089
 20
166.2981791146
 30
0.0
 11
350.2935639089
 21
166.6318701146
 31
0.0
  0
LINE
  5
5AC
330
21F
100
AcDbEntity
  8
0
  6
Continuous
 62
   255
100
AcDbLine
 10
374.5289278037999
 20
170.4799322465
 30
0.0
 11
374.2227001553
 21
170.7861598949
 31
0.0
  0
LINE
  5
5AD
330
21F
100
AcDbEntity
  8
0
  6
Continuous
 62
   255
100
AcDbLine
 10
372.8819020676001
 20
172.1269579827
 30
0.0
 11
373.1881297161
 21
171.8207303342
 31
0.0
  0
LINE
  5
5AE
330
21F
100
AcDbEntity
  8
0
  6
Continuous
 62
   255
100
AcDbLine
 10
344.1385722322
 20
220.1015213259
 30
0.0
 11
343.8700510408001
 21
220.7299322465
 31
0.0
  0
LINE
  5
5AF
330
21F
100
AcDbEntity
  8
0
  6
Continuous
 62
   255
100
AcDbLine
 10
344.4039087365
 20
220.5034451146
 30
0.0
 11
344.1762786893
 21
221.0361598949
 31
0.0
  0
LINE
  5
5B0
330
21F
100
AcDbEntity
  8
0
  6
Continuous
 62
   255
100
AcDbLine
 10
372.2534911471
 20
171.8584367913
 30
0.0
 11
372.8819020676001
 21
172.1269579827
 31
0.0
  0
LINE
  5
5B1
330
21F
100
AcDbEntity
  8
0
  6
Continuous
 62
   255
100
AcDbLine
 10
372.6554149357
 20
171.593100287
 30
0.0
 11
373.1881297161
 21
171.8207303342
 31
0.0
  0
LINE
  5
5B2
330
21F
100
AcDbEntity
  8
0
  6
Continuous
 62
   255
100
AcDbLine
 10
374.2604066124
 20
169.8515213259
 30
0.0
 11
373.9950701081
 21
170.2534451146
 31
0.0
  0
LINE
  5
5B3
330
21F
100
AcDbEntity
  8
0
  6
Continuous
 62
   255
100
AcDbLine
 10
373.150423259
 20
172.7553689032
 30
0.0
 11
373.4157597633
 21
172.3534451146
 31
0.0
  0
LINE
  5
5B4
330
21F
100
AcDbEntity
  8
0
  6
Continuous
 62
   255
100
AcDbLine
 10
344.9832190814
 20
222.6034451146
 30
0.0
 11
345.2108491286
 21
222.0707303342
 31
0.0
  0
LINE
  5
5B5
330
21F
100
AcDbEntity
  8
0
  6
Continuous
 62
   255
100
AcDbLine
 10
345.2485555856
 20
223.0053689032
 30
0.0
 11
345.5170767771
 21
222.3769579827
 31
0.0
  0
LINE
  5
5B6
330
21F
100
AcDbEntity
  8
0
  6
Continuous
 62
   255
100
AcDbLine
 10
356.6935639089
 20
163.1534451146
 30
0.0
 11
356.5935639089
 21
163.0534451146
 31
0.0
  0
LINE
  5
5B7
330
21F
100
AcDbEntity
  8
0
  6
Continuous
 62
   255
100
AcDbLine
 10
374.7554149357
 20
171.0137899422
 30
0.0
 11
374.2227001553
 21
170.7861598949
 31
0.0
  0
LINE
  5
5B8
330
21F
100
AcDbEntity
  8
0
  6
Continuous
 62
   255
100
AcDbLine
 10
375.1573387244
 20
170.7484534379
 30
0.0
 11
374.5289278037999
 21
170.4799322465
 31
0.0
  0
LINE
  5
5B9
330
21F
100
AcDbEntity
  8
0
  6
Continuous
 62
   255
100
AcDbLine
 10
345.2485555856
 20
220.1015213259
 30
0.0
 11
344.9832190814
 21
220.5034451146
 31
0.0
  0
LINE
  5
5BA
330
21F
100
AcDbEntity
  8
0
  6
Continuous
 62
   255
100
AcDbLine
 10
344.1385722322
 20
223.0053689032
 30
0.0
 11
344.4039087365
 21
222.6034451146
 31
0.0
  0
LINE
  5
5BB
330
21F
100
AcDbEntity
  8
0
  6
Continuous
 62
   255
100
AcDbLine
 10
373.150423259
 20
169.8515213259
 30
0.0
 11
372.8819020676001
 21
170.4799322465
 31
0.0
  0
LINE
  5
5BC
330
21F
100
AcDbEntity
  8
0
  6
Continuous
 62
   255
100
AcDbLine
 10
373.4157597633
 20
170.2534451146
 30
0.0
 11
373.1881297161
 21
170.7861598949
 31
0.0
  0
LINE
  5
5BD
330
21F
100
AcDbEntity
  8
0
  6
Continuous
 62
   255
100
AcDbLine
 10
372.2534911471
 20
170.7484534379
 30
0.0
 11
372.6554149357
 21
171.0137899422
 31
0.0
  0
LINE
  5
5BE
330
21F
100
AcDbEntity
  8
0
  6
Continuous
 62
   255
100
AcDbLine
 10
375.1573387244
 20
171.8584367913
 30
0.0
 11
374.7554149357
 21
171.593100287
 31
0.0
  0
LINE
  5
5BF
330
21F
100
AcDbEntity
  8
0
  6
Continuous
 62
   255
100
AcDbLine
 10
373.9950701081
 20
172.3534451146
 30
0.0
 11
374.2227001553
 21
171.8207303342
 31
0.0
  0
LINE
  5
5C0
330
21F
100
AcDbEntity
  8
0
  6
Continuous
 62
   255
100
AcDbLine
 10
374.2604066124
 20
172.7553689032
 30
0.0
 11
374.5289278037999
 21
172.1269579827
 31
0.0
  0
LINE
  5
5C1
330
21F
100
AcDbEntity
  8
0
  6
Continuous
 62
   255
100
AcDbLine
 10
372.2534911471
 20
170.7484534379
 30
0.0
 11
372.2534911471
 21
171.8584367913
 31
0.0
  0
LINE
  5
5C2
330
21F
100
AcDbEntity
  8
0
  6
Continuous
 62
   255
100
AcDbLine
 10
372.6554149357
 20
171.593100287
 30
0.0
 11
372.6554149357
 21
171.0137899422
 31
0.0
  0
LINE
  5
5C3
330
21F
100
AcDbEntity
  8
0
  6
Continuous
 62
   255
100
AcDbLine
 10
374.7554149357
 20
171.0137899422
 30
0.0
 11
374.7554149357
 21
171.593100287
 31
0.0
  0
LINE
  5
5C4
330
21F
100
AcDbEntity
  8
0
  6
Continuous
 62
   255
100
AcDbLine
 10
375.1573387244
 20
171.8584367913
 30
0.0
 11
375.1573387244
 21
170.7484534379
 31
0.0
  0
LINE
  5
5C5
330
21F
100
AcDbEntity
  8
0
  6
Continuous
 62
   255
100
AcDbLine
 10
372.8819020676001
 20
172.1269579827
 30
0.0
 11
373.150423259
 21
172.7553689032
 31
0.0
  0
LINE
  5
5C6
330
21F
100
AcDbEntity
  8
0
  6
Continuous
 62
   255
100
AcDbLine
 10
373.4157597633
 20
172.3534451146
 30
0.0
 11
373.1881297161
 21
171.8207303342
 31
0.0
  0
LINE
  5
5C7
330
21F
100
AcDbEntity
  8
0
  6
Continuous
 62
   255
100
AcDbLine
 10
374.2604066124
 20
172.7553689032
 30
0.0
 11
373.9950701081
 21
172.3534451146
 31
0.0
  0
LINE
  5
5C8
330
21F
100
AcDbEntity
  8
0
  6
Continuous
 62
   255
100
AcDbLine
 10
373.150423259
 20
169.8515213259
 30
0.0
 11
373.4157597633
 21
170.2534451146
 31
0.0
  0
LINE
  5
5C9
330
21F
100
AcDbEntity
  8
0
  6
Continuous
 62
   255
100
AcDbLine
 10
374.5289278037999
 20
172.1269579827
 30
0.0
 11
374.2227001553
 21
171.8207303342
 31
0.0
  0
LINE
  5
5CA
330
21F
100
AcDbEntity
  8
0
  6
Continuous
 62
   255
100
AcDbLine
 10
372.8819020676001
 20
170.4799322465
 30
0.0
 11
373.1881297161
 21
170.7861598949
 31
0.0
  0
LINE
  5
5CB
330
21F
100
AcDbEntity
  8
0
  6
Continuous
 62
   255
100
AcDbLine
 10
345.5170767771
 20
220.7299322465
 30
0.0
 11
345.2108491286
 21
221.0361598949
 31
0.0
  0
LINE
  5
5CC
330
21F
100
AcDbEntity
  8
0
  6
Continuous
 62
   255
100
AcDbLine
 10
343.8700510408001
 20
222.3769579827
 30
0.0
 11
344.1762786893
 21
222.0707303342
 31
0.0
  0
LWPOLYLINE
  5
5CD
330
21F
100
AcDbEntity
  8
02___PRT_ALL_AXES
  6
Continuous
 62
   255
100
AcDbPolyline
 90
        3
 70
     0
 43
0.0
 10
376.9355767231
 20
170.9448996815
 10
376.7039148486
 20
170.3198615021
 10
376.411742639
 20
169.7409460866
  0
LINE
  5
5CE
330
21F
100
AcDbEntity
  8
0
  6
Continuous
 62
   255
100
AcDbLine
 10
373.9950701081
 20
170.2534451146
 30
0.0
 11
374.2227001553
 21
170.7861598949
 31
0.0
  0
LINE
  5
5CF
330
21F
100
AcDbEntity
  8
0
  6
Continuous
 62
   255
100
AcDbLine
 10
374.5289278037999
 20
170.4799322465
 30
0.0
 11
374.2604066124
 21
169.8515213259
 31
0.0
  0
LWPOLYLINE
  5
5D0
330
21F
100
AcDbEntity
  8
02___PRT_ALL_AXES
  6
Continuous
 62
   255
100
AcDbPolyline
 90
        3
 70
     0
 43
0.0
 10
376.411742639
 20
169.7409460866
 10
376.0559162839
 20
169.1977051795
 10
375.6310052828
 20
168.6853156649
  0
LINE
  5
5D1
330
21F
100
AcDbEntity
  8
0
  6
Continuous
 62
   255
100
AcDbLine
 10
343.2416401203
 20
222.1084367913
 30
0.0
 11
343.6435639089
 21
221.843100287
 31
0.0
  0
LINE
  5
5D2
330
21F
100
AcDbEntity
  8
0
  6
Continuous
 62
   255
100
AcDbLine
 10
346.1454876976
 20
220.9984534379
 30
0.0
 11
345.7435639089
 21
221.2637899422
 31
0.0
  0
LINE
  5
5D3
330
21F
100
AcDbEntity
  8
0
  6
Continuous
 62
   255
100
AcDbLine
 10
343.8700510408001
 20
220.7299322465
 30
0.0
 11
343.2416401203
 21
220.9984534379
 31
0.0
  0
LINE
  5
5D4
330
21F
100
AcDbEntity
  8
0
  6
Continuous
 62
   255
100
AcDbLine
 10
343.6435639089
 20
221.2637899422
 30
0.0
 11
344.1762786893
 21
221.0361598949
 31
0.0
  0
LINE
  5
5D5
330
21F
100
AcDbEntity
  8
0
  6
Continuous
 62
   255
100
AcDbLine
 10
345.7435639089
 20
221.843100287
 30
0.0
 11
345.2108491286
 21
222.0707303342
 31
0.0
  0
LINE
  5
5D6
330
21F
100
AcDbEntity
  8
0
  6
Continuous
 62
   255
100
AcDbLine
 10
345.5170767771
 20
222.3769579827
 30
0.0
 11
346.1454876976
 21
222.1084367913
 31
0.0
  0
LINE
  5
5D7
330
21F
100
AcDbEntity
  8
0
  6
Continuous
 62
   255
100
AcDbLine
 10
345.2485555856
 20
220.1015213259
 30
0.0
 11
344.1385722322
 21
220.1015213259
 31
0.0
  0
LINE
  5
5D8
330
21F
100
AcDbEntity
  8
0
  6
Continuous
 62
   255
100
AcDbLine
 10
344.4039087365
 20
220.5034451146
 30
0.0
 11
344.9832190814
 21
220.5034451146
 31
0.0
  0
LINE
  5
5D9
330
21F
100
AcDbEntity
  8
0
  6
Continuous
 62
   255
100
AcDbLine
 10
344.9832190814
 20
222.6034451146
 30
0.0
 11
344.4039087365
 21
222.6034451146
 31
0.0
  0
LINE
  5
5DA
330
21F
100
AcDbEntity
  8
0
  6
Continuous
 62
   255
100
AcDbLine
 10
344.1385722322
 20
223.0053689032
 30
0.0
 11
345.2485555856
 21
223.0053689032
 31
0.0
  0
LWPOLYLINE
  5
5DB
330
21F
100
AcDbEntity
  8
02___PRT_ALL_AXES
  6
Continuous
 62
   255
100
AcDbPolyline
 90
        4
 70
     0
 43
0.0
 10
343.3889924687
 20
224.5301199973
 10
343.8269218894
 20
224.6131235809
 10
344.263338504
 20
224.6623657077
 10
344.6935639071
 20
224.6784431688
  0
LWPOLYLINE
  5
5DC
330
21F
100
AcDbEntity
  8
02___PRT_ALL_AXES
  6
Continuous
 62
   255
100
AcDbPolyline
 90
        3
 70
     0
 43
0.0
 10
344.6935639071
 20
224.6784431679
 10
345.3413863173
 20
224.6419711088
 10
345.9981353492
 20
224.5301199973
  0
LWPOLYLINE
  5
5DD
330
21F
100
AcDbEntity
  8
0
  6
Continuous
 62
   255
100
AcDbPolyline
 90
        3
 70
     0
 43
0.0
 10
345.7034337118
 20
123.0315244585
 10
345.5318799244
 20
123.0452399583
 10
345.3543575693
 20
122.9196169818
  0
LWPOLYLINE
  5
5DE
330
21F
100
AcDbEntity
  8
0
  6
Continuous
 62
   255
100
AcDbPolyline
 90
       10
 70
     0
 43
0.0
 10
344.6935639089
 20
122.8901831772
 10
344.8702992781
 20
122.8601323599
 10
345.0708020216
 20
122.8969718874
 10
345.2394249775
 20
122.9970043249
 10
345.3810042505001
 20
123.0943185589
 10
345.5151035261
 20
123.1485724257
 10
345.6386860148001
 20
123.1050404314
 10
345.730678424
 20
123.0005902073
 10
345.7933042235
 20
122.8974320094
 10
345.8185639089
 20
122.8493436556
  0
LINE
  5
5DF
330
21F
100
AcDbEntity
  8
0
  6
Continuous
 62
   255
100
AcDbLine
 10
344.7894577271
 20
122.7625122916
 30
0.0
 11
344.6935639089
 21
122.8380990029
 31
0.0
  0
LWPOLYLINE
  5
5E0
330
21F
100
AcDbEntity
  8
0
  6
Continuous
 62
   255
100
AcDbPolyline
 90
        7
 70
     0
 43
0.0
 10
343.4935639089
 20
122.849343701
 10
343.5276945358
 20
122.8025553306
 10
343.6135810971
 20
122.7094923438
 10
343.7330284485
 20
122.6443284714
 10
343.8769236248
 20
122.6699084941
 10
344.0097977491
 20
122.7773783223
 10
344.1219628157
 20
122.8938897387
  0
LINE
  5
5E1
330
21F
100
AcDbEntity
  8
0
  6
Continuous
 62
   255
100
AcDbLine
 10
343.4935639089
 20
128.677175413
 30
0.0
 11
343.4935639089
 21
122.8493436796
 31
0.0
  0
LINE
  5
5E2
330
21F
100
AcDbEntity
  8
0
  6
Continuous
 62
   255
100
AcDbLine
 10
343.5685639089
 20
128.677175413
 30
0.0
 11
343.5685639089
 21
122.8493436796
 31
0.0
  0
LINE
  5
5E3
330
21F
100
AcDbEntity
  8
0
  6
Continuous
 62
   255
100
AcDbLine
 10
344.6935639089
 20
128.677175413
 30
0.0
 11
344.6935639089
 21
122.8901831772
 31
0.0
  0
LINE
  5
5E4
330
21F
100
AcDbEntity
  8
0
  6
Continuous
 62
   255
100
AcDbLine
 10
345.8185639089
 20
128.677175413
 30
0.0
 11
345.8185639089
 21
122.8493436796
 31
0.0
  0
LINE
  5
5E5
330
21F
100
AcDbEntity
  8
0
  6
Continuous
 62
   255
100
AcDbLine
 10
345.8935639089
 20
128.677175413
 30
0.0
 11
345.8935639089
 21
122.8493436796
 31
0.0
  0
LWPOLYLINE
  5
5E6
330
21F
100
AcDbEntity
  8
0
  6
Continuous
 62
   255
100
AcDbPolyline
 90
        7
 70
     0
 43
0.0
 10
343.5685639089
 20
122.8493436577
 10
343.6068102286
 20
122.8967537716
 10
343.7220859537
 20
123.0027344933
 10
343.9263322914
 20
123.0853843323
 10
344.2114139751999
 20
123.0585832317
 10
344.4852169965
 20
122.9619504027
 10
344.6935639089
 20
122.8901831772
  0
LWPOLYLINE
  5
5E7
330
21F
100
AcDbEntity
  8
0
  6
Continuous
 62
   255
100
AcDbPolyline
 90
        5
 70
     0
 43
0.0
 10
345.3543575693
 20
122.9196169818
 10
345.2059384201001
 20
122.778239709
 10
345.0544234399
 20
122.681776725
 10
344.9026832444
 20
122.694544731
 10
344.7894577271
 20
122.7625122916
  0
LWPOLYLINE
  5
5E8
330
21F
100
AcDbEntity
  8
0
  6
Continuous
 62
   255
100
AcDbPolyline
 90
        3
 70
     0
 43
0.0
 10
344.1219628157
 20
122.8938897387
 10
344.2319632592
 20
122.9901256498
 10
344.3172090198999
 20
123.0212451687
  0
LINE
  5
5E9
330
21F
100
AcDbEntity
  8
0
  6
Continuous
 62
     2
100
AcDbLine
 10
345.8935639089
 20
128.677175413
 30
0.0
 11
343.4935639089
 21
128.677175413
 31
0.0
  0
ARC
  5
76D
330
21F
100
AcDbEntity
  8
02___PRT_ALL_AXES
  6
Continuous
 62
   255
100
AcDbCircle
 10
84.72448273960003
 20
171.3034451146
 30
0.0
 40
3.25
100
AcDbArc
 50
233.6661416469
 51
186.3338583531
  0
CIRCLE
  5
76E
330
21F
100
AcDbEntity
  8
0
  6
Continuous
 62
   255
100
AcDbCircle
 10
84.72448273960003
 20
171.3034451146
 30
0.0
 40
2.799999999999998
  0
CIRCLE
  5
76F
330
21F
100
AcDbEntity
  8
02___PRT_ALL_AXES
  6
Continuous
 62
   255
100
AcDbCircle
 10
90.7553633778
 20
165.072474726
 30
0.0
 40
2.049999999999998
  0
ARC
  5
770
330
21F
100
AcDbEntity
  8
0
  6
Continuous
 62
     2
100
AcDbCircle
 10
90.7553633778
 20
165.072474726
 30
0.0
 40
2.0
100
AcDbArc
 50
255.0
 51
195.0
  0
CIRCLE
  5
771
330
21F
100
AcDbEntity
  8
02___PRT_ALL_AXES
  6
Continuous
 62
   255
100
AcDbCircle
 10
90.7553633778
 20
165.072474726
 30
0.0
 40
1.8
  0
CIRCLE
  5
772
330
21F
100
AcDbEntity
  8
02___PRT_ALL_AXES
  6
Continuous
 62
   255
100
AcDbCircle
 10
90.7553633778
 20
211.0344155031
 30
0.0
 40
2.049999999999998
  0
ARC
  5
773
330
21F
100
AcDbEntity
  8
0
  6
Continuous
 62
     2
100
AcDbCircle
 10
90.7553633778
 20
211.0344155031
 30
0.0
 40
2.0
100
AcDbArc
 50
255.0
 51
195.0
  0
CIRCLE
  5
774
330
21F
100
AcDbEntity
  8
02___PRT_ALL_AXES
  6
Continuous
 62
   255
100
AcDbCircle
 10
90.7553633778
 20
211.0344155031
 30
0.0
 40
1.8
  0
ARC
  5
775
330
21F
100
AcDbEntity
  8
02___PRT_ALL_AXES
  6
Continuous
 62
   255
100
AcDbCircle
 10
142.7481847932
 20
171.3034451146
 30
0.0
 40
3.25
100
AcDbArc
 50
353.6661416469
 51
306.3338583531
  0
CIRCLE
  5
776
330
21F
100
AcDbEntity
  8
0
  6
Continuous
 62
   255
100
AcDbCircle
 10
142.7481847932
 20
171.3034451146
 30
0.0
 40
2.799999999999998
  0
CIRCLE
  5
777
330
21F
100
AcDbEntity
  8
02___PRT_ALL_AXES
  6
Continuous
 62
   255
100
AcDbCircle
 10
136.7173041549
 20
165.072474726
 30
0.0
 40
2.049999999999998
  0
ARC
  5
778
330
21F
100
AcDbEntity
  8
0
  6
Continuous
 62
     2
100
AcDbCircle
 10
136.7173041549
 20
165.072474726
 30
0.0
 40
2.0
100
AcDbArc
 50
255.0
 51
195.0
  0
CIRCLE
  5
779
330
21F
100
AcDbEntity
  8
02___PRT_ALL_AXES
  6
Continuous
 62
   255
100
AcDbCircle
 10
136.7173041549
 20
165.072474726
 30
0.0
 40
1.8
  0
CIRCLE
  5
77A
330
21F
100
AcDbEntity
  8
02___PRT_ALL_AXES
  6
Continuous
 62
   255
100
AcDbCircle
 10
113.7363337664
 20
154.5534451146
 30
0.0
 40
0.5
  0
CIRCLE
  5
77B
330
21F
100
AcDbEntity
  8
0
  6
Continuous
 62
   255
100
AcDbCircle
 10
113.7363337664
 20
188.0534451145999
 30
0.0
 40
37.0
  0
ARC
  5
77C
330
21F
100
AcDbEntity
  8
02___PRT_ALL_AXES
  6
Continuous
 62
   255
100
AcDbCircle
 10
113.7363337664
 20
188.0534451145999
 30
0.0
 40
36.4999961146
100
AcDbArc
 50
92.0482841257
 51
207.9517158743
  0
ARC
  5
77D
330
21F
100
AcDbEntity
  8
02___PRT_ALL_AXES
  6
Continuous
 62
   255
100
AcDbCircle
 10
113.7363337664
 20
188.0534451145999
 30
0.0
 40
36.4999961146
100
AcDbArc
 50
332.0482841257
 51
87.95171587430003
  0
ARC
  5
77E
330
21F
100
AcDbEntity
  8
02___PRT_ALL_AXES
  6
Continuous
 62
   255
100
AcDbCircle
 10
113.7363337664
 20
188.0534451145999
 30
0.0
 40
36.4999961146
100
AcDbArc
 50
212.0482841257
 51
327.9517158743
  0
CIRCLE
  5
77F
330
21F
100
AcDbEntity
  8
02___PRT_ALL_AXES
  6
CENTER
 62
     2
100
AcDbCircle
 10
113.7363337664
 20
188.0534451145999
 30
0.0
 40
32.5
  0
CIRCLE
  5
780
330
21F
100
AcDbEntity
  8
0
  6
Continuous
 62
   255
100
AcDbCircle
 10
113.7363337664
 20
188.0534451145999
 30
0.0
 40
20.0
  0
CIRCLE
  5
781
330
21F
100
AcDbEntity
  8
0
  6
Continuous
 62
   255
100
AcDbCircle
 10
113.7363337664
 20
188.0534451145999
 30
0.0
 40
19.5000015402
  0
CIRCLE
  5
782
330
21F
100
AcDbEntity
  8
0
  6
Continuous
 62
   255
100
AcDbCircle
 10
113.7363337664
 20
188.0534451145999
 30
0.0
 40
6.0
  0
CIRCLE
  5
783
330
21F
100
AcDbEntity
  8
0
  6
Continuous
 62
   255
100
AcDbCircle
 10
113.7363337664
 20
188.0534451145999
 30
0.0
 40
5.0
  0
CIRCLE
  5
784
330
21F
100
AcDbEntity
  8
0
  6
Continuous
 62
   255
100
AcDbCircle
 10
113.7363337664
 20
188.0534451145999
 30
0.0
 40
4.5
  0
CIRCLE
  5
785
330
21F
100
AcDbEntity
  8
0
  6
Continuous
 62
   255
100
AcDbCircle
 10
113.7363337664
 20
188.0534451145999
 30
0.0
 40
3.0
  0
CIRCLE
  5
786
330
21F
100
AcDbEntity
  8
0
  6
Continuous
 62
   255
100
AcDbCircle
 10
113.7363337664
 20
188.0534451145999
 30
0.0
 40
2.5
  0
ARC
  5
787
330
21F
100
AcDbEntity
  8
02___PRT_ALL_AXES
  6
Continuous
 62
   255
100
AcDbCircle
 10
113.7363337664
 20
221.5534451146
 30
0.0
 40
3.25
100
AcDbArc
 50
113.6661416469
 51
66.333858353
  0
CIRCLE
  5
788
330
21F
100
AcDbEntity
  8
0
  6
Continuous
 62
   255
100
AcDbCircle
 10
113.7363337664
 20
221.5534451146
 30
0.0
 40
2.799999999999998
  0
CIRCLE
  5
789
330
21F
100
AcDbEntity
  8
02___PRT_ALL_AXES
  6
Continuous
 62
   255
100
AcDbCircle
 10
136.7173041549
 20
211.0344155031
 30
0.0
 40
2.049999999999998
  0
ARC
  5
78A
330
21F
100
AcDbEntity
  8
0
  6
Continuous
 62
     2
100
AcDbCircle
 10
136.7173041549
 20
211.0344155031
 30
0.0
 40
2.0
100
AcDbArc
 50
255.0
 51
195.0
  0
CIRCLE
  5
78B
330
21F
100
AcDbEntity
  8
02___PRT_ALL_AXES
  6
Continuous
 62
   255
100
AcDbCircle
 10
136.7173041549
 20
211.0344155031
 30
0.0
 40
1.8
  0
ARC
  5
78C
330
21F
100
AcDbEntity
  8
02___PRT_ALL_AXES
  6
Continuous
 62
   255
100
AcDbCircle
 10
315.6817128822
 20
171.3034451146
 30
0.0
 40
3.25
100
AcDbArc
 50
233.6661411411
 51
186.3338588589
  0
CIRCLE
  5
78D
330
21F
100
AcDbEntity
  8
0
  6
Continuous
 62
   255
100
AcDbCircle
 10
315.6817128822
 20
171.3034451146
 30
0.0
 40
2.799999999999998
  0
ARC
  5
78E
330
21F
100
AcDbEntity
  8
0
  6
Continuous
 62
   255
100
AcDbCircle
 10
331.6935639089
 20
163.8534451146
 30
0.0
 40
2.0
100
AcDbArc
 50
180.0
 51
270.0
  0
ARC
  5
78F
330
21F
100
AcDbEntity
  8
0
  6
Continuous
 62
   255
100
AcDbCircle
 10
338.3935639089
 20
166.6534451146
 30
0.0
 40
1.199999999999999
100
AcDbArc
 50
90.0
 51
180.0
  0
ARC
  5
790
330
21F
100
AcDbEntity
  8
0
  6
Continuous
 62
   255
100
AcDbCircle
 10
335.9935639089
 20
166.5534451145999
 30
0.0
 40
1.199999999999999
100
AcDbArc
 50
270.0
 51
360.0
  0
ARC
  5
791
330
21F
100
AcDbEntity
  8
02___PRT_ALL_AXES
  6
Continuous
 62
   255
100
AcDbCircle
 10
373.7054149357
 20
171.3034451146
 30
0.0
 40
3.25
100
AcDbArc
 50
353.6661411411
 51
306.3338588589
  0
CIRCLE
  5
792
330
21F
100
AcDbEntity
  8
0
  6
Continuous
 62
   255
100
AcDbCircle
 10
373.7054149357
 20
171.3034451146
 30
0.0
 40
2.799999999999998
  0
ARC
  5
793
330
21F
100
AcDbEntity
  8
0
  6
Continuous
 62
   255
100
AcDbCircle
 10
357.6935639089
 20
163.8534451146
 30
0.0
 40
2.0
100
AcDbArc
 50
270.0
 51
360.0
  0
ARC
  5
794
330
21F
100
AcDbEntity
  8
0
  6
Continuous
 62
   255
100
AcDbCircle
 10
353.3935639089
 20
166.5534451145999
 30
0.0
 40
1.199999999999999
100
AcDbArc
 50
180.0
 51
270.0
  0
ARC
  5
795
330
21F
100
AcDbEntity
  8
0
  6
Continuous
 62
   255
100
AcDbCircle
 10
350.9935639089
 20
166.6534451146
 30
0.0
 40
1.199999999999999
100
AcDbArc
 50
0.0
 51
90.0
  0
CIRCLE
  5
796
330
21F
100
AcDbEntity
  8
02___PRT_ALL_AXES
  6
Continuous
 62
   255
100
AcDbCircle
 10
344.6935639089
 20
154.5534451146
 30
0.0
 40
0.5
  0
CIRCLE
  5
797
330
21F
100
AcDbEntity
  8
0
  6
Continuous
 62
   255
100
AcDbCircle
 10
344.6935639089
 20
188.0534451145999
 30
0.0
 40
37.0
  0
ARC
  5
798
330
21F
100
AcDbEntity
  8
02___PRT_ALL_AXES
  6
Continuous
 62
   255
100
AcDbCircle
 10
344.6935639089
 20
188.0534451145999
 30
0.0
 40
36.4999961252
100
AcDbArc
 50
332.0482840838
 51
87.9517159162
  0
ARC
  5
799
330
21F
100
AcDbEntity
  8
02___PRT_ALL_AXES
  6
Continuous
 62
   255
100
AcDbCircle
 10
344.6935639089
 20
188.0534451145999
 30
0.0
 40
36.4999961252
100
AcDbArc
 50
212.0482840838
 51
327.9517159162
  0
ARC
  5
79A
330
21F
100
AcDbEntity
  8
02___PRT_ALL_AXES
  6
Continuous
 62
   255
100
AcDbCircle
 10
344.6935639089
 20
188.0534451145999
 30
0.0
 40
36.4999961252
100
AcDbArc
 50
92.0482840838
 51
207.9517159162
  0
ARC
  5
79B
330
21F
100
AcDbEntity
  8
0
  6
Continuous
 62
   255
100
AcDbCircle
 10
344.6935639089
 20
188.0534451145999
 30
0.0
 40
15.7
100
AcDbArc
 50
33.600229
 51
46.3997710001
  0
ARC
  5
79C
330
21F
100
AcDbEntity
  8
0
  6
Continuous
 62
   255
100
AcDbCircle
 10
344.6935639089
 20
188.0534451145999
 30
0.0
 40
15.7
100
AcDbArc
 50
133.6002289999
 51
146.3997708766
  0
ARC
  5
79D
330
21F
100
AcDbEntity
  8
0
  6
Continuous
 62
   255
100
AcDbCircle
 10
344.6935639089
 20
188.0534451145999
 30
0.0
 40
15.0
100
AcDbArc
 50
0.0
 51
33.3002350264
  0
ARC
  5
79E
330
21F
100
AcDbEntity
  8
0
  6
Continuous
 62
   255
100
AcDbCircle
 10
344.6935639089
 20
188.0534451145999
 30
0.0
 40
15.0
100
AcDbArc
 50
46.6997650001
 51
133.3002353367
  0
ARC
  5
79F
330
21F
100
AcDbEntity
  8
0
  6
Continuous
 62
   255
100
AcDbCircle
 10
344.6935639089
 20
188.0534451145999
 30
0.0
 40
15.0
100
AcDbArc
 50
146.6997650001
 51
180.0
  0
ARC
  5
7A0
330
21F
100
AcDbEntity
  8
0
  6
Continuous
 62
   255
100
AcDbCircle
 10
344.6935639089
 20
188.0534451145999
 30
0.0
 40
14.0
100
AcDbArc
 50
17.4999994719
 51
62.4999968908
  0
ARC
  5
7A1
330
21F
100
AcDbEntity
  8
0
  6
Continuous
 62
   255
100
AcDbCircle
 10
344.6935639089
 20
188.0534451145999
 30
0.0
 40
14.0
100
AcDbArc
 50
117.5000001319
 51
162.5000001253
  0
ARC
  5
7A2
330
21F
100
AcDbEntity
  8
0
  6
Continuous
 62
   255
100
AcDbCircle
 10
344.6935639089
 20
188.0534451145999
 30
0.0
 40
12.4999997866
100
AcDbArc
 50
17.5000000001
 51
62.49999776199998
  0
ARC
  5
7A3
330
21F
100
AcDbEntity
  8
0
  6
Continuous
 62
   255
100
AcDbCircle
 10
344.6935639089
 20
188.0534451145999
 30
0.0
 40
12.4999990081
100
AcDbArc
 50
117.5
 51
162.5000009397
  0
ARC
  5
7A4
330
21F
100
AcDbEntity
  8
0
  6
Continuous
 62
   255
100
AcDbCircle
 10
344.6935639089
 20
188.0534451145999
 30
0.0
 40
9.5
100
AcDbArc
 50
197.846803
 51
222.1531980833
  0
ARC
  5
7A5
330
21F
100
AcDbEntity
  8
0
  6
Continuous
 62
   255
100
AcDbCircle
 10
344.6935639089
 20
188.0534451145999
 30
0.0
 40
9.5
100
AcDbArc
 50
317.846803
 51
342.1531972284
  0
ARC
  5
7A6
330
21F
100
AcDbEntity
  8
0
  6
Continuous
 62
   255
100
AcDbCircle
 10
344.6935639089
 20
188.0534451145999
 30
0.0
 40
9.5
100
AcDbArc
 50
77.84680201659999
 51
102.1531983912
  0
ARC
  5
7A7
330
21F
100
AcDbEntity
  8
0
  6
Continuous
 62
   255
100
AcDbCircle
 10
344.6935639089
 20
188.0534451145999
 30
0.0
 40
7.5
100
AcDbArc
 50
225.4660117296
 51
314.5339897463
  0
ARC
  5
7A8
330
21F
100
AcDbEntity
  8
0
  6
Continuous
 62
   255
100
AcDbCircle
 10
344.6935639089
 20
188.0534451145999
 30
0.0
 40
7.5
100
AcDbArc
 50
345.4660099534
 51
74.5339894074
  0
ARC
  5
7A9
330
21F
100
AcDbEntity
  8
0
  6
Continuous
 62
   255
100
AcDbCircle
 10
344.6935639089
 20
188.0534451145999
 30
0.0
 40
7.5
100
AcDbArc
 50
105.4660111437
 51
194.5339893409
  0
CIRCLE
  5
7AA
330
21F
100
AcDbEntity
  8
0
  6
Continuous
 62
   255
100
AcDbCircle
 10
344.6935639089
 20
188.0534451145999
 30
0.0
 40
6.5
  0
CIRCLE
  5
7AB
330
21F
100
AcDbEntity
  8
0
  6
Continuous
 62
   255
100
AcDbCircle
 10
349.4653516739894
 20
189.9231156025735
 30
0.0
 40
0.45
  0
ARC
  5
7AC
330
21F
100
AcDbEntity
  8
02___PRT_ALL_AXES
  6
Continuous
 62
   255
100
AcDbCircle
 10
344.6935639089
 20
221.5534451146
 30
0.0
 40
3.25
100
AcDbArc
 50
113.6661411411
 51
66.333858859
  0
CIRCLE
  5
7AD
330
21F
100
AcDbEntity
  8
0
  6
Continuous
 62
   255
100
AcDbCircle
 10
344.6935639089
 20
221.5534451146
 30
0.0
 40
2.799999999999998
  0
CIRCLE
  5
7AE
330
21F
100
AcDbEntity
  8
0
  6
Continuous
 62
   255
100
AcDbCircle
 10
354.7247826444
 20
191.7045097762
 30
0.0
 40
0.45
  0
CIRCLE
  5
7AF
330
21F
100
AcDbEntity
  8
0
  6
Continuous
 62
   255
100
AcDbCircle
 10
353.0333359069
 20
191.0888735735
 30
0.0
 40
0.45
  0
CIRCLE
  5
7B0
330
21F
100
AcDbEntity
  8
0
  6
Continuous
 62
   255
100
AcDbCircle
 10
351.4922086244
 20
193.7581846300999
 30
0.0
 40
0.45
  0
LINE
  5
9EC
330
21F
100
AcDbEntity
  8
0
  6
Continuous
 62
     2
100
AcDbLine
 10
86.13870768822668
 20
212.9544390040714
 30
0.0
 11
77.07301906086662
 21
216.7247732864999
 31
0.0
  0
LINE
  5
9ED
330
21F
100
AcDbEntity
  8
0
  6
Continuous
 62
     2
100
AcDbLine
 10
77.07301906086662
 20
216.7247732864999
 30
0.0
 11
51.27468572753329
 21
216.7247732864999
 31
0.0
  0
INSERT
  5
9F0
330
21F
100
AcDbEntity
  8
0
  6
Continuous
 62
     2
100
AcDbBlockReference
  2
_FILLED
 10
88.90870110196187
 20
211.8024249035223
 30
0.0
 41
3.0
 42
3.0
 43
3.0
 50
337.4180352756974
  0
MTEXT
  5
9F1
330
21F
100
AcDbEntity
  8
0
  6
Continuous
 62
     3
100
AcDbMText
 10
76.44801906086668
 20
224.8185611652879
 30
0.0
 40
2.799999999999998
 41
0.0
 71
     3
 72
     1
  1
\A1;4x M4 {\Fgdt|c0;x}6 max\P90%%D APART
 73
     1
 44
1.0
1001
ACAD
1000
MTEXTBEGIN
1070
    73
1070
     1
1070
    44
1040
1.0
1070
    74
1070
     0
1000
MTEXTEND
  0
LINE
  5
A8E
330
21F
100
AcDbEntity
  8
0
  6
Continuous
 62
     2
100
AcDbLine
 10
320.8843136846589
 20
216.3751612305919
 30
0.0
 11
312.2464491707999
 21
226.6501234534999
 31
0.0
  0
LINE
  5
A8F
330
21F
100
AcDbEntity
  8
0
  6
Continuous
 62
     2
100
AcDbLine
 10
312.2464491707999
 20
226.6501234534999
 30
0.0
 11
300.9814491707997
 21
226.6501234535
 31
0.0
  0
INSERT
  5
A91
330
21F
100
AcDbEntity
  8
0
  6
Continuous
 62
     2
100
AcDbBlockReference
  2
_FILLED
 10
320.8843136846589
 20
216.3751612305919
 30
0.0
 41
3.0
 42
3.0
 43
3.0
 50
310.0527982613897
  0
LINE
  5
A92
330
21F
100
AcDbEntity
  8
0
  6
Continuous
 62
     2
100
AcDbLine
 10
318.9538339367439
 20
218.6715165913516
 30
0.0
 11
317.0233541888288
 21
220.9678719521113
 31
0.0
  0
MTEXT
  5
A94
330
21F
100
AcDbEntity
  8
0
  6
Continuous
 62
     3
100
AcDbMText
 10
311.6214491707999
 20
232.1767143625908
 30
0.0
 40
2.799999999999998
 41
0.0
 71
     3
 72
     1
  1
\A1;%%c74{\H2.100000;\S 0^ -0.1;}
 73
     1
 44
1.0
1001
ACAD
1000
MTEXTBEGIN
1070
    73
1070
     1
1070
    44
1040
1.0
1070
    74
1070
     0
1000
MTEXTEND
  0
LWPOLYLINE
  5
ABF
330
21F
100
AcDbEntity
  8
0
100
AcDbPolyline
 90
        4
 70
     1
 43
0.0
 10
40.33898485733494
 20
257.2892722903166
 10
406.9821301520265
 20
257.2892722903166
 10
406.9821301520265
 20
92.44787193745969
 10
40.33898485733494
 20
92.44787193745969
  0
ENDSEC
  0
SECTION
  2
OBJECTS
  0
DICTIONARY
  5
C
330
0
100
AcDbDictionary
281
     1
  3
ACAD_COLOR
350
7E4
  3
ACAD_GROUP
350
D
  3
ACAD_LAYOUT
350
1A
  3
ACAD_MATERIAL
350
7BA
  3
ACAD_MLEADERSTYLE
350
807
  3
ACAD_MLINESTYLE
350
17
  3
ACAD_PLOTSETTINGS
350
19
  3
ACAD_PLOTSTYLENAME
350
E
  3
ACAD_SCALELIST
350
7E5
  3
ACAD_TABLESTYLE
350
7B1
  3
ACAD_VISUALSTYLE
350
7D3
  3
ACDB_RECOMPOSE_DATA
350
995
  3
AcDbVariableDictionary
350
923
  3
DWGPROPS
350
AC2
  0
DICTIONARY
  5
8DF
330
10
100
AcDbDictionary
280
     1
281
     1
  3
ADSK_XREC_LAYER_RECONCILED
360
8E0
  0
DICTIONARY
  5
8E1
330
1FA
100
AcDbDictionary
280
     1
281
     1
  3
ADSK_XREC_LAYER_RECONCILED
360
8E2
  0
DICTIONARY
  5
8E3
330
1FB
100
AcDbDictionary
280
     1
281
     1
  3
ADSK_XREC_LAYER_RECONCILED
360
8E4
  0
DICTIONARY
  5
8E5
330
1FC
100
AcDbDictionary
280
     1
281
     1
  3
ADSK_XREC_LAYER_RECONCILED
360
8E6
  0
DICTIONARY
  5
8E7
330
1FD
100
AcDbDictionary
280
     1
281
     1
  3
ADSK_XREC_LAYER_RECONCILED
360
8E8
  0
DICTIONARY
  5
8E9
330
1FE
100
AcDbDictionary
280
     1
281
     1
  3
ADSK_XREC_LAYER_RECONCILED
360
8EA
  0
DICTIONARY
  5
8EB
330
1FF
100
AcDbDictionary
280
     1
281
     1
  3
ADSK_XREC_LAYER_RECONCILED
360
8EC
  0
DICTIONARY
  5
8ED
330
200
100
AcDbDictionary
280
     1
281
     1
  3
ADSK_XREC_LAYER_RECONCILED
360
8EE
  0
DICTIONARY
  5
8EF
330
201
100
AcDbDictionary
280
     1
281
     1
  3
ADSK_XREC_LAYER_RECONCILED
360
8F0
  0
DICTIONARY
  5
8F1
330
202
100
AcDbDictionary
280
     1
281
     1
  3
ADSK_XREC_LAYER_RECONCILED
360
8F2
  0
DICTIONARY
  5
8F3
330
203
100
AcDbDictionary
280
     1
281
     1
  3
ADSK_XREC_LAYER_RECONCILED
360
8F4
  0
DICTIONARY
  5
8F5
330
204
100
AcDbDictionary
280
     1
281
     1
  3
ADSK_XREC_LAYER_RECONCILED
360
8F6
  0
DICTIONARY
  5
8F7
330
205
100
AcDbDictionary
280
     1
281
     1
  3
ADSK_XREC_LAYER_RECONCILED
360
8F8
  0
DICTIONARY
  5
8F9
330
206
100
AcDbDictionary
280
     1
281
     1
  3
ADSK_XREC_LAYER_RECONCILED
360
8FA
  0
DICTIONARY
  5
8FB
330
207
100
AcDbDictionary
280
     1
281
     1
  3
ADSK_XREC_LAYER_RECONCILED
360
8FC
  0
DICTIONARY
  5
8FD
330
208
100
AcDbDictionary
280
     1
281
     1
  3
ADSK_XREC_LAYER_RECONCILED
360
8FE
  0
DICTIONARY
  5
8FF
330
209
100
AcDbDictionary
280
     1
281
     1
  3
ADSK_XREC_LAYER_RECONCILED
360
900
  0
DICTIONARY
  5
901
330
20A
100
AcDbDictionary
280
     1
281
     1
  3
ADSK_XREC_LAYER_RECONCILED
360
902
  0
DICTIONARY
  5
903
330
20B
100
AcDbDictionary
280
     1
281
     1
  3
ADSK_XREC_LAYER_RECONCILED
360
904
  0
DICTIONARY
  5
905
330
20C
100
AcDbDictionary
280
     1
281
     1
  3
ADSK_XREC_LAYER_RECONCILED
360
906
  0
DICTIONARY
  5
907
330
20D
100
AcDbDictionary
280
     1
281
     1
  3
ADSK_XREC_LAYER_RECONCILED
360
908
  0
DICTIONARY
  5
909
330
20E
100
AcDbDictionary
280
     1
281
     1
  3
ADSK_XREC_LAYER_RECONCILED
360
90A
  0
DICTIONARY
  5
90B
330
20F
100
AcDbDictionary
280
     1
281
     1
  3
ADSK_XREC_LAYER_RECONCILED
360
90C
  0
DICTIONARY
  5
90D
330
210
100
AcDbDictionary
280
     1
281
     1
  3
ADSK_XREC_LAYER_RECONCILED
360
90E
  0
DICTIONARY
  5
90F
330
211
100
AcDbDictionary
280
     1
281
     1
  3
ADSK_XREC_LAYER_RECONCILED
360
910
  0
DICTIONARY
  5
911
330
212
100
AcDbDictionary
280
     1
281
     1
  3
ADSK_XREC_LAYER_RECONCILED
360
912
  0
DICTIONARY
  5
913
330
213
100
AcDbDictionary
280
     1
281
     1
  3
ADSK_XREC_LAYER_RECONCILED
360
914
  0
DICTIONARY
  5
915
330
214
100
AcDbDictionary
280
     1
281
     1
  3
ADSK_XREC_LAYER_RECONCILED
360
916
  0
DICTIONARY
  5
917
330
215
100
AcDbDictionary
280
     1
281
     1
  3
ADSK_XREC_LAYER_RECONCILED
360
918
  0
DICTIONARY
  5
919
330
216
100
AcDbDictionary
280
     1
281
     1
  3
ADSK_XREC_LAYER_RECONCILED
360
91A
  0
DICTIONARY
  5
91B
330
217
100
AcDbDictionary
280
     1
281
     1
  3
ADSK_XREC_LAYER_RECONCILED
360
91C
  0
DICTIONARY
  5
91D
330
218
100
AcDbDictionary
280
     1
281
     1
  3
ADSK_XREC_LAYER_RECONCILED
360
91E
  0
DICTIONARY
  5
91F
330
219
100
AcDbDictionary
280
     1
281
     1
  3
ADSK_XREC_LAYER_RECONCILED
360
920
  0
DICTIONARY
  5
921
330
21A
100
AcDbDictionary
280
     1
281
     1
  3
ADSK_XREC_LAYER_RECONCILED
360
922
  0
DICTIONARY
  5
9F2
330
21F
100
AcDbDictionary
280
     1
281
     1
  3
ACAD_SORTENTS
360
9F3
  0
DICTIONARY
  5
968
330
388
100
AcDbDictionary
280
     1
281
     1
  3
ACAD_BREAKDATA
360
972
  0
DICTIONARY
  5
7E4
102
{ACAD_REACTORS
330
C
102
}
330
C
100
AcDbDictionary
281
     1
  0
DICTIONARY
  5
D
102
{ACAD_REACTORS
330
C
102
}
330
C
100
AcDbDictionary
281
     1
  0
DICTIONARY
  5
1A
102
{ACAD_REACTORS
330
C
102
}
330
C
100
AcDbDictionary
281
     1
  3
Layout1
350
7B3
  3
Model
350
7B2
  0
DICTIONARY
  5
7BA
102
{ACAD_REACTORS
330
C
102
}
330
C
100
AcDbDictionary
281
     1
  3
ByBlock
350
7C3
  3
ByLayer
350
7BB
  3
Global
350
7CB
  0
DICTIONARY
  5
807
102
{ACAD_REACTORS
330
C
102
}
330
C
100
AcDbDictionary
281
     1
  3
Standard
350
808
  0
DICTIONARY
  5
17
102
{ACAD_REACTORS
330
C
102
}
330
C
100
AcDbDictionary
281
     1
  3
Standard
350
18
  0
DICTIONARY
  5
19
102
{ACAD_REACTORS
330
C
102
}
330
C
100
AcDbDictionary
281
     1
  0
ACDBDICTIONARYWDFLT
  5
E
102
{ACAD_REACTORS
330
C
102
}
330
C
100
AcDbDictionary
281
     1
  3
Normal
350
F
100
AcDbDictionaryWithDefault
340
F
  0
DICTIONARY
  5
7E5
102
{ACAD_REACTORS
330
C
102
}
330
C
100
AcDbDictionary
281
     1
  3
A0
350
7E6
  3
A1
350
7E7
  3
A2
350
7E8
  3
A3
350
7E9
  3
A4
350
7EA
  3
A5
350
7EB
  3
A6
350
7EC
  3
A7
350
7ED
  3
A8
350
7EE
  3
A9
350
7EF
  3
B0
350
7F0
  3
B1
350
7F1
  3
B2
350
7F2
  3
B3
350
7F3
  3
B4
350
7F4
  3
B5
350
7F5
  3
B6
350
7F6
  3
B7
350
7F7
  3
B8
350
7F8
  3
B9
350
7F9
  3
C0
350
7FA
  3
C1
350
7FB
  3
C2
350
7FC
  3
C3
350
7FD
  3
C4
350
7FE
  3
C5
350
7FF
  3
C6
350
800
  3
C7
350
801
  3
C8
350
802
  3
C9
350
803
  3
D0
350
804
  3
D1
350
805
  3
D2
350
806
  0
DICTIONARY
  5
7B1
330
C
100
AcDbDictionary
281
     1
  3
Standard
350
7B4
  3
Standard1
350
7B5
  0
DICTIONARY
  5
7D3
102
{ACAD_REACTORS
330
C
102
}
330
C
100
AcDbDictionary
281
     1
  3
2dWireframe
350
7D9
  3
3D Hidden
350
7DB
  3
3dWireframe
350
7DA
  3
Basic
350
7D8
  3
Brighten
350
7DF
  3
ColorChange
350
7E3
  3
Conceptual
350
7DC
  3
Dim
350
7DE
  3
Facepattern
350
7E2
  3
Flat
350
7D4
  3
FlatWithEdges
350
7D5
  3
Gouraud
350
7D6
  3
GouraudWithEdges
350
7D7
  3
Linepattern
350
7E1
  3
Realistic
350
7DD
  3
Thicken
350
7E0
  0
XRECORD
  5
995
102
{ACAD_REACTORS
330
C
102
}
330
C
100
AcDbXrecord
280
     1
 90
        1
330
7B4
330
7B5
  0
DICTIONARY
  5
923
102
{ACAD_REACTORS
330
C
102
}
330
C
100
AcDbDictionary
281
     1
  3
CANNOSCALE
350
927
  3
CMLEADERSTYLE
350
925
  3
CTABLESTYLE
350
924
  3
DIMASSOC
350
92C
  3
HIDETEXT
350
92B
  3
INDEXCTL
350
92A
  3
LIGHTINGUNITS
350
928
  3
MSLTSCALE
350
926
  3
SORTENTS
350
929
  0
XRECORD
  5
AC2
102
{ACAD_REACTORS
330
C
102
}
330
C
100
AcDbXrecord
280
     1
  1
DWGPROPS COOKIE
  2

  3

  4

  6

  7

  8
sandip.dhanwate
  9

300
=
301
=
302
=
303
=
304
=
305
=
306
=
307
=
308
=
309
=
 40
0.0321256944444445
 41
2457087.396239595
 42
2457667.609093588
  1

 90
        0
  0
XRECORD
  5
8E0
102
{ACAD_REACTORS
330
8DF
102
}
330
8DF
100
AcDbXrecord
280
     1
290
     1
  0
XRECORD
  5
8E2
102
{ACAD_REACTORS
330
8E1
102
}
330
8E1
100
AcDbXrecord
280
     1
290
     1
  0
XRECORD
  5
8E4
102
{ACAD_REACTORS
330
8E3
102
}
330
8E3
100
AcDbXrecord
280
     1
290
     1
  0
XRECORD
  5
8E6
102
{ACAD_REACTORS
330
8E5
102
}
330
8E5
100
AcDbXrecord
280
     1
290
     1
  0
XRECORD
  5
8E8
102
{ACAD_REACTORS
330
8E7
102
}
330
8E7
100
AcDbXrecord
280
     1
290
     1
  0
XRECORD
  5
8EA
102
{ACAD_REACTORS
330
8E9
102
}
330
8E9
100
AcDbXrecord
280
     1
290
     1
  0
XRECORD
  5
8EC
102
{ACAD_REACTORS
330
8EB
102
}
330
8EB
100
AcDbXrecord
280
     1
290
     1
  0
XRECORD
  5
8EE
102
{ACAD_REACTORS
330
8ED
102
}
330
8ED
100
AcDbXrecord
280
     1
290
     1
  0
XRECORD
  5
8F0
102
{ACAD_REACTORS
330
8EF
102
}
330
8EF
100
AcDbXrecord
280
     1
290
     1
  0
XRECORD
  5
8F2
102
{ACAD_REACTORS
330
8F1
102
}
330
8F1
100
AcDbXrecord
280
     1
290
     1
  0
XRECORD
  5
8F4
102
{ACAD_REACTORS
330
8F3
102
}
330
8F3
100
AcDbXrecord
280
     1
290
     1
  0
XRECORD
  5
8F6
102
{ACAD_REACTORS
330
8F5
102
}
330
8F5
100
AcDbXrecord
280
     1
290
     1
  0
XRECORD
  5
8F8
102
{ACAD_REACTORS
330
8F7
102
}
330
8F7
100
AcDbXrecord
280
     1
290
     1
  0
XRECORD
  5
8FA
102
{ACAD_REACTORS
330
8F9
102
}
330
8F9
100
AcDbXrecord
280
     1
290
     1
  0
XRECORD
  5
8FC
102
{ACAD_REACTORS
330
8FB
102
}
330
8FB
100
AcDbXrecord
280
     1
290
     1
  0
XRECORD
  5
8FE
102
{ACAD_REACTORS
330
8FD
102
}
330
8FD
100
AcDbXrecord
280
     1
290
     1
  0
XRECORD
  5
900
102
{ACAD_REACTORS
330
8FF
102
}
330
8FF
100
AcDbXrecord
280
     1
290
     1
  0
XRECORD
  5
902
102
{ACAD_REACTORS
330
901
102
}
330
901
100
AcDbXrecord
280
     1
290
     1
  0
XRECORD
  5
904
102
{ACAD_REACTORS
330
903
102
}
330
903
100
AcDbXrecord
280
     1
290
     1
  0
XRECORD
  5
906
102
{ACAD_REACTORS
330
905
102
}
330
905
100
AcDbXrecord
280
     1
290
     1
  0
XRECORD
  5
908
102
{ACAD_REACTORS
330
907
102
}
330
907
100
AcDbXrecord
280
     1
290
     1
  0
XRECORD
  5
90A
102
{ACAD_REACTORS
330
909
102
}
330
909
100
AcDbXrecord
280
     1
290
     1
  0
XRECORD
  5
90C
102
{ACAD_REACTORS
330
90B
102
}
330
90B
100
AcDbXrecord
280
     1
290
     1
  0
XRECORD
  5
90E
102
{ACAD_REACTORS
330
90D
102
}
330
90D
100
AcDbXrecord
280
     1
290
     1
  0
XRECORD
  5
910
102
{ACAD_REACTORS
330
90F
102
}
330
90F
100
AcDbXrecord
280
     1
290
     1
  0
XRECORD
  5
912
102
{ACAD_REACTORS
330
911
102
}
330
911
100
AcDbXrecord
280
     1
290
     1
  0
XRECORD
  5
914
102
{ACAD_REACTORS
330
913
102
}
330
913
100
AcDbXrecord
280
     1
290
     1
  0
XRECORD
  5
916
102
{ACAD_REACTORS
330
915
102
}
330
915
100
AcDbXrecord
280
     1
290
     1
  0
XRECORD
  5
918
102
{ACAD_REACTORS
330
917
102
}
330
917
100
AcDbXrecord
280
     1
290
     1
  0
XRECORD
  5
91A
102
{ACAD_REACTORS
330
919
102
}
330
919
100
AcDbXrecord
280
     1
290
     1
  0
XRECORD
  5
91C
102
{ACAD_REACTORS
330
91B
102
}
330
91B
100
AcDbXrecord
280
     1
290
     1
  0
XRECORD
  5
91E
102
{ACAD_REACTORS
330
91D
102
}
330
91D
100
AcDbXrecord
280
     1
290
     1
  0
XRECORD
  5
920
102
{ACAD_REACTORS
330
91F
102
}
330
91F
100
AcDbXrecord
280
     1
290
     1
  0
XRECORD
  5
922
102
{ACAD_REACTORS
330
921
102
}
330
921
100
AcDbXrecord
280
     1
290
     1
  0
SORTENTSTABLE
  5
9F3
102
{ACAD_REACTORS
330
9F2
102
}
330
9F2
100
AcDbSortentsTable
330
21F
331
426
  5
435
331
422
  5
431
331
49C
  5
4AB
331
45D
  5
46C
331
498
  5
4A7
331
4D7
  5
4E6
331
41E
  5
42D
331
41A
  5
429
331
459
  5
468
331
494
  5
4A3
331
4D3
  5
4E2
331
490
  5
49F
331
77D
  5
78C
331
3AC
  5
3BB
331
3A8
  5
3B7
331
3E7
  5
3F6
331
779
  5
788
331
3A4
  5
3B3
331
775
  5
784
331
9EC
  5
3A6
331
3E3
  5
3F2
331
771
  5
780
331
3A0
  5
3AF
331
516
  5
525
331
512
  5
521
331
58C
  5
59B
331
5C7
  5
5D6
331
50E
  5
51D
331
54D
  5
55C
331
588
  5
597
331
584
  5
593
331
5C3
  5
5D2
331
50A
  5
519
331
549
  5
558
331
580
  5
58F
331
416
  5
425
331
455
  5
464
331
4CF
  5
4DE
331
4CB
  5
4DA
331
412
  5
421
331
451
  5
460
331
48C
  5
49B
331
44D
  5
45C
331
488
  5
497
331
4C7
  5
4D6
331
40E
  5
41D
331
449
  5
458
331
484
  5
493
331
4C3
  5
4D2
331
3DF
  5
3EE
331
40A
  5
419
331
3DB
  5
3EA
331
480
  5
48F
331
76D
  5
77C
331
7AC
  5
A90
331
7A8
  5
9EF
331
3D7
  5
3E6
331
7A4
  5
9EB
331
3D3
  5
3E2
331
5E9
  5
77B
331
7A0
  5
7AF
331
545
  5
554
331
5BF
  5
5CE
331
506
  5
515
331
502
  5
511
331
541
  5
550
331
57C
  5
58B
331
5BB
  5
5CA
331
5B7
  5
5C6
331
4FE
  5
50D
331
53D
  5
54C
331
578
  5
587
331
5B3
  5
5C2
331
4FA
  5
509
331
539
  5
548
331
574
  5
583
331
570
  5
57F
331
386
  5
3AA
331
382
  5
382
331
406
  5
415
331
445
  5
454
331
4BF
  5
4CE
331
4BB
  5
4CA
331
402
  5
411
331
441
  5
450
331
47C
  5
48B
331
478
  5
487
331
4B7
  5
4C6
331
3FE
  5
40D
331
43D
  5
44C
331
439
  5
448
331
474
  5
483
331
4B3
  5
4C2
331
3CF
  5
3DE
331
3FA
  5
409
331
3CB
  5
3DA
331
470
  5
47F
331
5E5
  5
777
331
79C
  5
7AB
331
798
  5
7A7
331
3C7
  5
3D6
331
5E1
  5
773
331
5DD
  5
76F
331
794
  5
7A3
331
3C3
  5
3D2
331
5D9
  5
5E8
331
790
  5
79F
331
535
  5
544
331
5AF
  5
5BE
331
4F6
  5
505
331
4F2
  5
501
331
531
  5
540
331
56C
  5
57B
331
5AB
  5
5BA
331
4EE
  5
4FD
331
52D
  5
53C
331
568
  5
577
331
5A7
  5
5B6
331
5A3
  5
5B2
331
4EA
  5
4F9
331
529
  5
538
331
564
  5
573
331
560
  5
56F
331
37E
  5
37E
331
3F6
  5
405
331
435
  5
444
331
4AF
  5
4BE
331
4AB
  5
4BA
331
3F2
  5
401
331
431
  5
440
331
46C
  5
47B
331
A94
  5
3A5
331
468
  5
477
331
4A7
  5
4B6
331
3EE
  5
3FD
331
42D
  5
43C
331
429
  5
438
331
464
  5
473
331
4A3
  5
4B2
331
3BF
  5
3CE
331
3EA
  5
3F9
331
460
  5
46F
331
5D5
  5
5E4
331
78C
  5
79B
331
3BB
  5
3CA
331
788
  5
797
331
3B7
  5
3C6
331
5D1
  5
5E0
331
784
  5
793
331
3B3
  5
3C2
331
A8F
  5
3A0
331
5CD
  5
5DC
331
5C9
  5
5D8
331
780
  5
78F
331
525
  5
534
331
59F
  5
5AE
331
4E6
  5
4F5
331
521
  5
530
331
55C
  5
56B
331
59B
  5
5AA
331
4E2
  5
4F1
331
4DE
  5
4ED
331
51D
  5
52C
331
558
  5
567
331
597
  5
5A6
331
593
  5
5A2
331
4DA
  5
4E9
331
519
  5
528
331
554
  5
563
331
550
  5
55F
331
425
  5
434
331
49F
  5
4AE
331
49B
  5
4AA
331
421
  5
430
331
45C
  5
46B
331
497
  5
4A6
331
4D6
  5
4E5
331
41D
  5
42C
331
419
  5
428
331
458
  5
467
331
493
  5
4A2
331
3AF
  5
3BE
331
4D2
  5
4E1
331
77C
  5
78B
331
3AB
  5
3BA
331
3A7
  5
3B6
331
3E6
  5
3F5
331
778
  5
787
331
774
  5
783
331
3A3
  5
3B2
331
3E2
  5
3F1
331
770
  5
77F
331
58F
  5
59E
331
515
  5
524
331
511
  5
520
331
58B
  5
59A
331
5C6
  5
5D5
331
50D
  5
51C
331
54C
  5
55B
331
587
  5
596
331
583
  5
592
331
5C2
  5
5D1
331
509
  5
518
331
548
  5
557
331
9F1
  5
3A9
331
4CE
  5
4DD
331
415
  5
424
331
454
  5
463
331
48F
  5
49E
331
4CA
  5
4D9
331
411
  5
420
331
450
  5
45F
331
48B
  5
49A
331
44C
  5
45B
331
487
  5
496
331
4C6
  5
4D5
331
40D
  5
41C
331
409
  5
418
331
448
  5
457
331
483
  5
492
331
4C2
  5
4D1
331
39F
  5
3AE
331
7AF
  5
A93
331
3DE
  5
3ED
331
3DA
  5
3E9
331
7AB
  5
A8F
331
397
  5
3AD
331
7A7
  5
9EE
331
3D6
  5
3E5
331
7A3
  5
8DE
331
3D2
  5
3E1
331
5E8
  5
77A
331
544
  5
553
331
57F
  5
58E
331
5BE
  5
5CD
331
505
  5
514
331
501
  5
510
331
540
  5
54F
331
57B
  5
58A
331
5BA
  5
5C9
331
5B6
  5
5C5
331
4FD
  5
50C
331
53C
  5
54B
331
577
  5
586
331
573
  5
582
331
5B2
  5
5C1
331
4F9
  5
508
331
538
  5
547
331
381
  5
381
331
405
  5
414
331
444
  5
453
331
47F
  5
48E
331
4BE
  5
4CD
331
4BA
  5
4C9
331
401
  5
410
331
440
  5
44F
331
47B
  5
48A
331
43C
  5
44B
331
477
  5
486
331
4B6
  5
4C5
331
3FD
  5
40C
331
438
  5
447
331
473
  5
482
331
4B2
  5
4C1
331
79F
  5
7AE
331
3CE
  5
3DD
331
3F9
  5
408
331
3CA
  5
3D9
331
5E4
  5
776
331
79B
  5
7AA
331
797
  5
7A6
331
3C6
  5
3D5
331
5E0
  5
772
331
5DC
  5
76E
331
793
  5
7A2
331
3C2
  5
3D1
331
5D8
  5
5E7
331
534
  5
543
331
56F
  5
57E
331
5AE
  5
5BD
331
4F5
  5
504
331
4F1
  5
500
331
530
  5
53F
331
56B
  5
57A
331
5AA
  5
5B9
331
5A6
  5
5B5
331
4ED
  5
4FC
331
52C
  5
53B
331
567
  5
576
331
5A2
  5
5B1
331
4E9
  5
4F8
331
528
  5
537
331
563
  5
572
331
37D
  5
37D
331
3F5
  5
404
331
434
  5
443
331
46F
  5
47E
331
4AE
  5
4BD
331
4AA
  5
4B9
331
3F1
  5
400
331
430
  5
43F
331
46B
  5
47A
331
467
  5
476
331
4A6
  5
4B5
331
3ED
  5
3FC
331
42C
  5
43B
331
428
  5
437
331
463
  5
472
331
4A2
  5
4B1
331
78F
  5
79E
331
3BE
  5
3CD
331
3E9
  5
3F8
331
3BA
  5
3C9
331
5D4
  5
5E3
331
78B
  5
79A
331
787
  5
796
331
3B6
  5
3C5
331
5D0
  5
5DF
331
5CC
  5
5DB
331
783
  5
792
331
A8E
  5
388
331
3B2
  5
3C1
331
5C8
  5
5D7
331
524
  5
533
331
55F
  5
56E
331
59E
  5
5AD
331
4E5
  5
4F4
331
4E1
  5
4F0
331
520
  5
52F
331
55B
  5
56A
331
59A
  5
5A9
331
4DD
  5
4EC
331
51C
  5
52B
331
557
  5
566
331
596
  5
5A5
331
592
  5
5A1
331
4D9
  5
4E8
331
518
  5
527
331
553
  5
562
331
424
  5
433
331
49E
  5
4AD
331
49A
  5
4A9
331
420
  5
42F
331
45F
  5
46E
331
45B
  5
46A
331
496
  5
4A5
331
4D5
  5
4E4
331
41C
  5
42B
331
418
  5
427
331
492
  5
4A1
331
77F
  5
78E
331
3AE
  5
3BD
331
4D1
  5
4E0
331
77B
  5
78A
331
3AA
  5
3B9
331
777
  5
786
331
3A6
  5
3B5
331
3E5
  5
3F4
331
773
  5
782
331
3A2
  5
3B1
331
3E1
  5
3F0
331
514
  5
523
331
58E
  5
59D
331
510
  5
51F
331
54F
  5
55E
331
58A
  5
599
331
5C5
  5
5D4
331
50C
  5
51B
331
54B
  5
55A
331
586
  5
595
331
582
  5
591
331
5C1
  5
5D0
331
508
  5
517
331
9F0
  5
3A8
331
457
  5
466
331
4CD
  5
4DC
331
414
  5
423
331
453
  5
462
331
48E
  5
49D
331
48A
  5
499
331
4C9
  5
4D8
331
410
  5
41F
331
44F
  5
45E
331
44B
  5
45A
331
486
  5
495
331
4C5
  5
4D4
331
40C
  5
41B
331
408
  5
417
331
482
  5
491
331
4C1
  5
4D0
331
76F
  5
77E
331
7AE
  5
A92
331
3DD
  5
3EC
331
7AA
  5
A8E
331
3D9
  5
3E8
331
7A6
  5
9ED
331
3D5
  5
3E4
331
7A2
  5
8DD
331
3D1
  5
3E0
331
547
  5
556
331
543
  5
552
331
57E
  5
58D
331
5BD
  5
5CC
331
504
  5
513
331
500
  5
50F
331
53F
  5
54E
331
57A
  5
589
331
5B9
  5
5C8
331
5B5
  5
5C4
331
4FC
  5
50B
331
53B
  5
54A
331
576
  5
585
331
572
  5
581
331
5B1
  5
5C0
331
4F8
  5
507
331
388
  5
3AC
331
380
  5
380
331
447
  5
456
331
4BD
  5
4CC
331
404
  5
413
331
443
  5
452
331
47E
  5
48D
331
4B9
  5
4C8
331
400
  5
40F
331
43F
  5
44E
331
47A
  5
489
331
43B
  5
44A
331
476
  5
485
331
4B5
  5
4C4
331
3FC
  5
40B
331
3F8
  5
407
331
472
  5
481
331
4B1
  5
4C0
331
5E7
  5
779
331
79E
  5
7AD
331
3CD
  5
3DC
331
3C9
  5
3D8
331
5E3
  5
775
331
79A
  5
7A9
331
796
  5
7A5
331
3C5
  5
3D4
331
5DF
  5
771
331
5DB
  5
76D
331
792
  5
7A1
331
3C1
  5
3D0
331
537
  5
546
331
533
  5
542
331
56E
  5
57D
331
5AD
  5
5BC
331
4F4
  5
503
331
4F0
  5
4FF
331
52F
  5
53E
331
56A
  5
579
331
5A9
  5
5B8
331
5A5
  5
5B4
331
4EC
  5
4FB
331
52B
  5
53A
331
566
  5
575
331
562
  5
571
331
5A1
  5
5B0
331
4E8
  5
4F7
331
437
  5
446
331
3F4
  5
403
331
433
  5
442
331
46E
  5
47D
331
4AD
  5
4BC
331
4A9
  5
4B8
331
3F0
  5
3FF
331
42F
  5
43E
331
46A
  5
479
331
42B
  5
43A
331
A92
  5
3A3
331
466
  5
475
331
4A5
  5
4B4
331
3EC
  5
3FB
331
7B0
  5
A94
331
462
  5
471
331
4A1
  5
4B0
331
5D7
  5
5E6
331
78E
  5
79D
331
3BD
  5
3CC
331
3E8
  5
3F7
331
3B9
  5
3C8
331
5D3
  5
5E2
331
78A
  5
799
331
786
  5
795
331
3B5
  5
3C4
331
5CF
  5
5DE
331
5CB
  5
5DA
331
782
  5
791
331
3B1
  5
3C0
331
527
  5
536
331
523
  5
532
331
55E
  5
56D
331
59D
  5
5AC
331
4E4
  5
4F3
331
4E0
  5
4EF
331
51F
  5
52E
331
55A
  5
569
331
599
  5
5A8
331
595
  5
5A4
331
4DC
  5
4EB
331
51B
  5
52A
331
556
  5
565
331
591
  5
5A0
331
4D8
  5
4E7
331
552
  5
561
331
427
  5
436
331
423
  5
432
331
49D
  5
4AC
331
45E
  5
46D
331
499
  5
4A8
331
41F
  5
42E
331
45A
  5
469
331
495
  5
4A4
331
4D4
  5
4E3
331
41B
  5
42A
331
491
  5
4A0
331
77E
  5
78D
331
3AD
  5
3BC
331
4D0
  5
4DF
331
3A9
  5
3B8
331
77A
  5
789
331
3A5
  5
3B4
331
776
  5
785
331
9ED
  5
3A7
331
3E4
  5
3F3
331
772
  5
781
331
3A1
  5
3B0
331
3E0
  5
3EF
331
517
  5
526
331
513
  5
522
331
58D
  5
59C
331
50F
  5
51E
331
54E
  5
55D
331
589
  5
598
331
5C4
  5
5D3
331
50B
  5
51A
331
54A
  5
559
331
585
  5
594
331
581
  5
590
331
5C0
  5
5CF
331
417
  5
426
331
456
  5
465
331
4CC
  5
4DB
331
413
  5
422
331
452
  5
461
331
48D
  5
49C
331
489
  5
498
331
4C8
  5
4D7
331
40F
  5
41E
331
44E
  5
45D
331
44A
  5
459
331
485
  5
494
331
4C4
  5
4D3
331
40B
  5
41A
331
3DC
  5
3EB
331
481
  5
490
331
76E
  5
77D
331
7AD
  5
A91
331
4C0
  5
4CF
331
7A9
  5
A8D
331
3D8
  5
3E7
331
7A5
  5
9EC
331
3D4
  5
3E3
331
7A1
  5
7B0
331
3D0
  5
3DF
331
546
  5
555
331
507
  5
516
331
503
  5
512
331
542
  5
551
331
57D
  5
58C
331
5BC
  5
5CB
331
4FF
  5
50E
331
53E
  5
54D
331
579
  5
588
331
5B8
  5
5C7
331
5B4
  5
5C3
331
4FB
  5
50A
331
53A
  5
549
331
575
  5
584
331
571
  5
580
331
5B0
  5
5BF
331
387
  5
3AB
331
383
  5
383
331
407
  5
416
331
446
  5
455
331
4BC
  5
4CB
331
403
  5
412
331
442
  5
451
331
47D
  5
48C
331
479
  5
488
331
4B8
  5
4C7
331
3FF
  5
40E
331
43E
  5
44D
331
43A
  5
449
331
475
  5
484
331
4B4
  5
4C3
331
3FB
  5
40A
331
471
  5
480
331
4B0
  5
4BF
331
5E6
  5
778
331
79D
  5
7AC
331
3CC
  5
3DB
331
799
  5
7A8
331
3C8
  5
3D7
331
5E2
  5
774
331
795
  5
7A4
331
3C4
  5
3D3
331
5DE
  5
770
331
5DA
  5
5E9
331
791
  5
7A0
331
3C0
  5
3CF
331
536
  5
545
331
4F7
  5
506
331
532
  5
541
331
56D
  5
57C
331
5AC
  5
5BB
331
4F3
  5
502
331
4EF
  5
4FE
331
52E
  5
53D
331
569
  5
578
331
5A8
  5
5B7
331
5A4
  5
5B3
331
4EB
  5
4FA
331
52A
  5
539
331
565
  5
574
331
561
  5
570
331
5A0
  5
5AF
331
37F
  5
37F
331
3F7
  5
406
331
436
  5
445
331
4AC
  5
4BB
331
3F3
  5
402
331
432
  5
441
331
46D
  5
47C
331
4A8
  5
4B7
331
3EF
  5
3FE
331
42E
  5
43D
331
469
  5
478
331
42A
  5
439
331
A91
  5
3A2
331
465
  5
474
331
4A4
  5
4B3
331
3EB
  5
3FA
331
461
  5
470
331
4A0
  5
4AF
331
5D6
  5
5E5
331
78D
  5
79C
331
3BC
  5
3CB
331
3B8
  5
3C7
331
5D2
  5
5E1
331
789
  5
798
331
785
  5
794
331
3B4
  5
3C3
331
5CE
  5
5DD
331
5CA
  5
5D9
331
781
  5
790
331
3B0
  5
3BF
331
4E7
  5
4F6
331
526
  5
535
331
522
  5
531
331
55D
  5
56C
331
59C
  5
5AB
331
4E3
  5
4F2
331
4DF
  5
4EE
331
51E
  5
52D
331
559
  5
568
331
598
  5
5A7
331
594
  5
5A3
331
4DB
  5
4EA
331
51A
  5
529
331
555
  5
564
331
551
  5
560
331
590
  5
59F
  0
BREAKDATA
  5
972
102
{ACAD_REACTORS
330
968
102
}
330
968
100
AcDbBreakData
 70
     0
330
388
 90
        1
100
AcDbBreakPointRef
 71
     2
 72
     0
 91
        1
 10
267.13121082155
 20
208.0534451146
 30
0.0
 11
275.841560297849
 21
208.0534451146
 31
0.0
  0
LAYOUT
  5
7B3
102
{ACAD_XDICTIONARY
360
AC5
102
}
102
{ACAD_REACTORS
330
1A
102
}
330
1A
100
AcDbPlotSettings
  1

  2
none_device
  4
ISO_A3_(420.00_x_297.00_MM)
  6

 40
0.0
 41
0.0
 42
0.0
 43
0.0
 44
420.0
 45
297.0
 46
0.0
 47
0.0
 48
0.0
 49
0.0
140
0.0
141
0.0
142
1.0
143
1.0
 70
     0
 72
     1
 73
     0
 74
     0
  7

 75
     0
147
1.0
148
0.0
149
0.0
100
AcDbLayout
  1
Layout1
 70
     1
 71
     1
 10
0.0
 20
0.0
 11
12.0
 21
9.0
 12
0.0
 22
0.0
 32
0.0
 14
1.000000000000000E+20
 24
1.000000000000000E+20
 34
1.000000000000000E+20
 15
-1.000000000000000E+20
 25
-1.000000000000000E+20
 35
-1.000000000000000E+20
146
0.0
 13
0.0
 23
0.0
 33
0.0
 16
1.0
 26
0.0
 36
0.0
 17
0.0
 27
1.0
 37
0.0
 76
     0
330
220
  0
LAYOUT
  5
7B2
102
{ACAD_XDICTIONARY
360
AC3
102
}
102
{ACAD_REACTORS
330
1A
102
}
330
1A
100
AcDbPlotSettings
  1

  2
none_device
  4
ISO_A3_(420.00_x_297.00_MM)
  6

 40
0.0
 41
0.0
 42
0.0
 43
0.0
 44
420.0
 45
297.0
 46
0.0
 47
0.0
 48
0.0
 49
0.0
140
0.0
141
0.0
142
1.0
143
1.0
 70
  1024
 72
     1
 73
     0
 74
     0
  7

 75
     0
147
1.0
148
0.0
149
0.0
100
AcDbLayout
  1
Model
 70
     0
 71
     0
 10
0.0
 20
0.0
 11
420.0
 21
297.0
 12
0.0
 22
0.0
 32
0.0
 14
0.0
 24
0.0
 34
0.0
 15
0.0
 25
0.0
 35
0.0
146
0.0
 13
0.0
 23
0.0
 33
0.0
 16
1.0
 26
0.0
 36
0.0
 17
0.0
 27
1.0
 37
0.0
 76
     0
330
21F
331
1F4
  0
MATERIAL
  5
7C3
102
{ACAD_XDICTIONARY
360
7C4
102
}
102
{ACAD_REACTORS
330
7BA
102
}
330
7BA
100
AcDbMaterial
  1
ByBlock
 72
     0
 43
0.0008202099737533
 43
0.0
 43
0.0
 43
0.0
 43
0.0
 43
0.0008202099737533
 43
0.0
 43
0.0
 43
0.0
 43
0.0
 43
1.0
 43
0.0
 43
0.0
 43
0.0
 43
0.0
 43
1.0
 77
     0
 47
0.0008202099737533
 47
0.0
 47
0.0
 47
0.0
 47
0.0
 47
0.0008202099737533
 47
0.0
 47
0.0
 47
0.0
 47
0.0
 47
1.0
 47
0.0
 47
0.0
 47
0.0
 47
0.0
 47
1.0
171
     0
 49
0.0008202099737533
 49
0.0
 49
0.0
 49
0.0
 49
0.0
 49
0.0008202099737533
 49
0.0
 49
0.0
 49
0.0
 49
0.0
 49
1.0
 49
0.0
 49
0.0
 49
0.0
 49
0.0
 49
1.0
175
     0
142
0.0008202099737533
142
0.0
142
0.0
142
0.0
142
0.0
142
0.0008202099737533
142
0.0
142
0.0
142
0.0
142
0.0
142
1.0
142
0.0
142
0.0
142
0.0
142
0.0
142
1.0
179
     0
144
0.0008202099737533
144
0.0
144
0.0
144
0.0
144
0.0
144
0.0008202099737533
144
0.0
144
0.0
144
0.0
144
0.0
144
1.0
144
0.0
144
0.0
144
0.0
144
0.0
144
1.0
147
0.0008202099737533
147
0.0
147
0.0
147
0.0
147
0.0
147
0.0008202099737533
147
0.0
147
0.0
147
0.0
147
0.0
147
1.0
147
0.0
147
0.0
147
0.0
147
0.0
147
1.0
  0
MATERIAL
  5
7BB
102
{ACAD_XDICTIONARY
360
7BC
102
}
102
{ACAD_REACTORS
330
7BA
102
}
330
7BA
100
AcDbMaterial
  1
ByLayer
 72
     0
 43
0.0008202099737533
 43
0.0
 43
0.0
 43
0.0
 43
0.0
 43
0.0008202099737533
 43
0.0
 43
0.0
 43
0.0
 43
0.0
 43
1.0
 43
0.0
 43
0.0
 43
0.0
 43
0.0
 43
1.0
 77
     0
 47
0.0008202099737533
 47
0.0
 47
0.0
 47
0.0
 47
0.0
 47
0.0008202099737533
 47
0.0
 47
0.0
 47
0.0
 47
0.0
 47
1.0
 47
0.0
 47
0.0
 47
0.0
 47
0.0
 47
1.0
171
     0
 49
0.0008202099737533
 49
0.0
 49
0.0
 49
0.0
 49
0.0
 49
0.0008202099737533
 49
0.0
 49
0.0
 49
0.0
 49
0.0
 49
1.0
 49
0.0
 49
0.0
 49
0.0
 49
0.0
 49
1.0
175
     0
142
0.0008202099737533
142
0.0
142
0.0
142
0.0
142
0.0
142
0.0008202099737533
142
0.0
142
0.0
142
0.0
142
0.0
142
1.0
142
0.0
142
0.0
142
0.0
142
0.0
142
1.0
179
     0
144
0.0008202099737533
144
0.0
144
0.0
144
0.0
144
0.0
144
0.0008202099737533
144
0.0
144
0.0
144
0.0
144
0.0
144
1.0
144
0.0
144
0.0
144
0.0
144
0.0
144
1.0
147
0.0008202099737533
147
0.0
147
0.0
147
0.0
147
0.0
147
0.0008202099737533
147
0.0
147
0.0
147
0.0
147
0.0
147
1.0
147
0.0
147
0.0
147
0.0
147
0.0
147
1.0
  0
MATERIAL
  5
7CB
102
{ACAD_XDICTIONARY
360
7CC
102
}
102
{ACAD_REACTORS
330
7BA
102
}
330
7BA
100
AcDbMaterial
  1
Global
 72
     0
 43
0.0008202099737533
 43
0.0
 43
0.0
 43
0.0
 43
0.0
 43
0.0008202099737533
 43
0.0
 43
0.0
 43
0.0
 43
0.0
 43
1.0
 43
0.0
 43
0.0
 43
0.0
 43
0.0
 43
1.0
 77
     0
 47
0.0008202099737533
 47
0.0
 47
0.0
 47
0.0
 47
0.0
 47
0.0008202099737533
 47
0.0
 47
0.0
 47
0.0
 47
0.0
 47
1.0
 47
0.0
 47
0.0
 47
0.0
 47
0.0
 47
1.0
171
     0
 49
0.0008202099737533
 49
0.0
 49
0.0
 49
0.0
 49
0.0
 49
0.0008202099737533
 49
0.0
 49
0.0
 49
0.0
 49
0.0
 49
1.0
 49
0.0
 49
0.0
 49
0.0
 49
0.0
 49
1.0
175
     0
142
0.0008202099737533
142
0.0
142
0.0
142
0.0
142
0.0
142
0.0008202099737533
142
0.0
142
0.0
142
0.0
142
0.0
142
1.0
142
0.0
142
0.0
142
0.0
142
0.0
142
1.0
179
     0
144
0.0008202099737533
144
0.0
144
0.0
144
0.0
144
0.0
144
0.0008202099737533
144
0.0
144
0.0
144
0.0
144
0.0
144
1.0
144
0.0
144
0.0
144
0.0
144
0.0
144
1.0
147
0.0008202099737533
147
0.0
147
0.0
147
0.0
147
0.0
147
0.0008202099737533
147
0.0
147
0.0
147
0.0
147
0.0
147
1.0
147
0.0
147
0.0
147
0.0
147
0.0
147
1.0
  0
MLEADERSTYLE
  5
808
102
{ACAD_REACTORS
330
807
102
}
330
807
100
AcDbMLeaderStyle
170
     2
171
     1
172
     0
 90
        2
 40
0.0
 41
0.0
173
     1
 91
-1056964608
340
14
 92
       -2
290
     1
 42
2.0
291
     1
 43
0.36
  3
Standard
 44
4.0
300

342
11
174
     1
178
     6
175
     1
176
     0
 93
-1056964608
 45
4.0
292
     0
297
     0
 46
4.0
 94
-1056964608
 47
1.0
 49
1.0
140
1.0
293
     1
141
0.0
294
     1
177
     0
142
1.0
295
     0
296
     0
143
0.125
1001
ACAD_MLEADERVER
1070
     2
  0
MLINESTYLE
  5
18
102
{ACAD_REACTORS
330
17
102
}
330
17
100
AcDbMlineStyle
  2
STANDARD
 70
     0
  3

 62
   256
 51
90.0
 52
90.0
 71
     2
 49
0.5
 62
   256
  6
BYLAYER
 49
-0.5
 62
   256
  6
BYLAYER
  0
ACDBPLACEHOLDER
  5
F
102
{ACAD_REACTORS
330
E
102
}
330
E
  0
SCALE
  5
7E6
102
{ACAD_REACTORS
330
7E5
102
}
330
7E5
100
AcDbScale
 70
     0
300
1:1
140
1.0
141
1.0
290
     1
  0
SCALE
  5
7E7
102
{ACAD_REACTORS
330
7E5
102
}
330
7E5
100
AcDbScale
 70
     0
300
1:2
140
1.0
141
2.0
290
     0
  0
SCALE
  5
7E8
102
{ACAD_REACTORS
330
7E5
102
}
330
7E5
100
AcDbScale
 70
     0
300
1:4
140
1.0
141
4.0
290
     0
  0
SCALE
  5
7E9
102
{ACAD_REACTORS
330
7E5
102
}
330
7E5
100
AcDbScale
 70
     0
300
1:5
140
1.0
141
5.0
290
     0
  0
SCALE
  5
7EA
102
{ACAD_REACTORS
330
7E5
102
}
330
7E5
100
AcDbScale
 70
     0
300
1:8
140
1.0
141
8.0
290
     0
  0
SCALE
  5
7EB
102
{ACAD_REACTORS
330
7E5
102
}
330
7E5
100
AcDbScale
 70
     0
300
1:10
140
1.0
141
10.0
290
     0
  0
SCALE
  5
7EC
102
{ACAD_REACTORS
330
7E5
102
}
330
7E5
100
AcDbScale
 70
     0
300
1:16
140
1.0
141
16.0
290
     0
  0
SCALE
  5
7ED
102
{ACAD_REACTORS
330
7E5
102
}
330
7E5
100
AcDbScale
 70
     0
300
1:20
140
1.0
141
20.0
290
     0
  0
SCALE
  5
7EE
102
{ACAD_REACTORS
330
7E5
102
}
330
7E5
100
AcDbScale
 70
     0
300
1:30
140
1.0
141
30.0
290
     0
  0
SCALE
  5
7EF
102
{ACAD_REACTORS
330
7E5
102
}
330
7E5
100
AcDbScale
 70
     0
300
1:40
140
1.0
141
40.0
290
     0
  0
SCALE
  5
7F0
102
{ACAD_REACTORS
330
7E5
102
}
330
7E5
100
AcDbScale
 70
     0
300
1:50
140
1.0
141
50.0
290
     0
  0
SCALE
  5
7F1
102
{ACAD_REACTORS
330
7E5
102
}
330
7E5
100
AcDbScale
 70
     0
300
1:100
140
1.0
141
100.0
290
     0
  0
SCALE
  5
7F2
102
{ACAD_REACTORS
330
7E5
102
}
330
7E5
100
AcDbScale
 70
     0
300
2:1
140
2.0
141
1.0
290
     0
  0
SCALE
  5
7F3
102
{ACAD_REACTORS
330
7E5
102
}
330
7E5
100
AcDbScale
 70
     0
300
4:1
140
4.0
141
1.0
290
     0
  0
SCALE
  5
7F4
102
{ACAD_REACTORS
330
7E5
102
}
330
7E5
100
AcDbScale
 70
     0
300
8:1
140
8.0
141
1.0
290
     0
  0
SCALE
  5
7F5
102
{ACAD_REACTORS
330
7E5
102
}
330
7E5
100
AcDbScale
 70
     0
300
10:1
140
10.0
141
1.0
290
     0
  0
SCALE
  5
7F6
102
{ACAD_REACTORS
330
7E5
102
}
330
7E5
100
AcDbScale
 70
     0
300
100:1
140
100.0
141
1.0
290
     0
  0
SCALE
  5
7F7
102
{ACAD_REACTORS
330
7E5
102
}
330
7E5
100
AcDbScale
 70
     0
300
1/128" = 1'-0"
140
0.0078125
141
12.0
290
     0
  0
SCALE
  5
7F8
102
{ACAD_REACTORS
330
7E5
102
}
330
7E5
100
AcDbScale
 70
     0
300
1/64" = 1'-0"
140
0.015625
141
12.0
290
     0
  0
SCALE
  5
7F9
102
{ACAD_REACTORS
330
7E5
102
}
330
7E5
100
AcDbScale
 70
     0
300
1/32" = 1'-0"
140
0.03125
141
12.0
290
     0
  0
SCALE
  5
7FA
102
{ACAD_REACTORS
330
7E5
102
}
330
7E5
100
AcDbScale
 70
     0
300
1/16" = 1'-0"
140
0.0625
141
12.0
290
     0
  0
SCALE
  5
7FB
102
{ACAD_REACTORS
330
7E5
102
}
330
7E5
100
AcDbScale
 70
     0
300
3/32" = 1'-0"
140
0.09375
141
12.0
290
     0
  0
SCALE
  5
7FC
102
{ACAD_REACTORS
330
7E5
102
}
330
7E5
100
AcDbScale
 70
     0
300
1/8" = 1'-0"
140
0.125
141
12.0
290
     0
  0
SCALE
  5
7FD
102
{ACAD_REACTORS
330
7E5
102
}
330
7E5
100
AcDbScale
 70
     0
300
3/16" = 1'-0"
140
0.1875
141
12.0
290
     0
  0
SCALE
  5
7FE
102
{ACAD_REACTORS
330
7E5
102
}
330
7E5
100
AcDbScale
 70
     0
300
1/4" = 1'-0"
140
0.25
141
12.0
290
     0
  0
SCALE
  5
7FF
102
{ACAD_REACTORS
330
7E5
102
}
330
7E5
100
AcDbScale
 70
     0
300
3/8" = 1'-0"
140
0.375
141
12.0
290
     0
  0
SCALE
  5
800
102
{ACAD_REACTORS
330
7E5
102
}
330
7E5
100
AcDbScale
 70
     0
300
1/2" = 1'-0"
140
0.5
141
12.0
290
     0
  0
SCALE
  5
801
102
{ACAD_REACTORS
330
7E5
102
}
330
7E5
100
AcDbScale
 70
     0
300
3/4" = 1'-0"
140
0.75
141
12.0
290
     0
  0
SCALE
  5
802
102
{ACAD_REACTORS
330
7E5
102
}
330
7E5
100
AcDbScale
 70
     0
300
1" = 1'-0"
140
1.0
141
12.0
290
     0
  0
SCALE
  5
803
102
{ACAD_REACTORS
330
7E5
102
}
330
7E5
100
AcDbScale
 70
     0
300
1-1/2" = 1'-0"
140
1.5
141
12.0
290
     0
  0
SCALE
  5
804
102
{ACAD_REACTORS
330
7E5
102
}
330
7E5
100
AcDbScale
 70
     0
300
3" = 1'-0"
140
3.0
141
12.0
290
     0
  0
SCALE
  5
805
102
{ACAD_REACTORS
330
7E5
102
}
330
7E5
100
AcDbScale
 70
     0
300
6" = 1'-0"
140
6.0
141
12.0
290
     0
  0
SCALE
  5
806
102
{ACAD_REACTORS
330
7E5
102
}
330
7E5
100
AcDbScale
 70
     0
300
1'-0" = 1'-0"
140
12.0
141
12.0
290
     0
  0
TABLESTYLE
  5
7B4
102
{ACAD_XDICTIONARY
360
991
102
}
102
{ACAD_REACTORS
330
7B1
102
}
330
7B1
100
AcDbTableStyle
  3
Standard
 70
     0
 71
     0
 40
0.06
 41
0.06
280
     1
281
     1
  7
STANDARD
140
0.18
170
     1
 62
     0
 63
     7
283
     0
274
    -2
284
     1
 64
     0
275
    -2
285
     1
 65
     0
276
    -2
286
     1
 66
     0
277
    -2
287
     1
 67
     0
278
    -2
288
     1
 68
     0
279
    -2
289
     1
 69
     0
  7
STANDARD
140
0.18
170
     1
 62
     0
 63
     7
283
     0
274
    -2
284
     1
 64
     0
275
    -2
285
     1
 65
     0
276
    -2
286
     1
 66
     0
277
    -2
287
     1
 67
     0
278
    -2
288
     1
 68
     0
279
    -2
289
     1
 69
     0
  7
STANDARD
140
0.18
170
     1
 62
     0
 63
     7
283
     0
274
    -2
284
     1
 64
     0
275
    -2
285
     1
 65
     0
276
    -2
286
     1
 66
     0
277
    -2
287
     1
 67
     0
278
    -2
288
     1
 68
     0
279
    -2
289
     1
 69
     0
  0
TABLESTYLE
  5
7B5
102
{ACAD_XDICTIONARY
360
993
102
}
102
{ACAD_REACTORS
330
7B1
102
}
330
7B1
100
AcDbTableStyle
  3
Standard1
 70
     1
 71
     0
 40
0.06
 41
0.06
280
     1
281
     1
  7
STANDARD
140
0.18
170
     1
 62
     0
 63
     7
283
     0
274
    -2
284
     1
 64
     0
275
    -2
285
     1
 65
     0
276
    -2
286
     1
 66
     0
277
    -2
287
     1
 67
     0
278
    -2
288
     1
 68
     0
279
    -2
289
     1
 69
     0
  7
STANDARD
140
0.18
170
     1
 62
     0
 63
     7
283
     0
274
    -2
284
     1
 64
     0
275
    -2
285
     1
 65
     0
276
    -2
286
     1
 66
     0
277
    -2
287
     1
 67
     0
278
    -2
288
     1
 68
     0
279
    -2
289
     1
 69
     0
  7
STANDARD
140
0.18
170
     1
 62
     0
 63
     7
283
     0
274
    -2
284
     1
 64
     0
275
    -2
285
     1
 65
     0
276
    -2
286
     1
 66
     0
277
    -2
287
     1
 67
     0
278
    -2
288
     1
 68
     0
279
    -2
289
     1
 69
     0
  0
VISUALSTYLE
  5
7D9
102
{ACAD_REACTORS
330
7D3
102
}
330
7D3
100
AcDbVisualStyle
  2
2dWireframe
 70
     4
 71
     0
 72
     2
 73
     0
 90
        0
 40
-0.6
 41
-30.0
 62
     5
 63
     7
 74
     1
 91
        4
 64
     7
 65
   257
 75
     1
175
     1
 42
1.0
 92
        0
 66
   257
 43
1.0
 76
     1
 77
     6
 78
     2
 67
     7
 79
     5
170
     0
171
     0
290
     0
174
     0
 93
        1
 44
0.0
173
     0
291
     0
 45
0.0
1001
ACAD
1000
AcDbSavedByObjectVersion
1070
     0
1000
AcDbSavedByObjectVersion
1070
     0
1000
AcDbSavedByObjectVersion
1070
     0
1000
AcDbSavedByObjectVersion
1070
     0
  0
VISUALSTYLE
  5
7DB
102
{ACAD_REACTORS
330
7D3
102
}
330
7D3
100
AcDbVisualStyle
  2
3D Hidden
 70
     6
 71
     1
 72
     2
 73
     2
 90
        0
 40
-0.6
 41
-30.0
 62
     5
 63
     7
 74
     2
 91
        2
 64
     7
 65
   257
 75
     2
175
     1
 42
40.0
 92
        0
 66
   257
 43
1.0
 76
     1
 77
     6
 78
     2
 67
     7
 79
     3
170
     0
171
     0
290
     0
174
     0
 93
        1
 44
0.0
173
     0
291
     0
 45
0.0
1001
ACAD
1000
AcDbSavedByObjectVersion
1070
     0
1000
AcDbSavedByObjectVersion
1070
     0
1000
AcDbSavedByObjectVersion
1070
     0
1000
AcDbSavedByObjectVersion
1070
     0
  0
VISUALSTYLE
  5
7DA
102
{ACAD_REACTORS
330
7D3
102
}
330
7D3
100
AcDbVisualStyle
  2
3dWireframe
 70
     5
 71
     0
 72
     2
 73
     0
 90
        0
 40
-0.6
 41
-30.0
 62
     5
 63
     7
 74
     1
 91
        4
 64
     7
 65
   257
 75
     1
175
     1
 42
1.0
 92
        0
 66
   257
 43
1.0
 76
     1
 77
     6
 78
     2
 67
     7
 79
     5
170
     0
171
     0
290
     0
174
     0
 93
        1
 44
0.0
173
     0
291
     0
 45
0.0
1001
ACAD
1000
AcDbSavedByObjectVersion
1070
     0
1000
AcDbSavedByObjectVersion
1070
     0
1000
AcDbSavedByObjectVersion
1070
     0
1000
AcDbSavedByObjectVersion
1070
     0
  0
VISUALSTYLE
  5
7D8
102
{ACAD_REACTORS
330
7D3
102
}
330
7D3
100
AcDbVisualStyle
  2
Basic
 70
     7
 71
     1
 72
     0
 73
     1
 90
        0
 40
-0.6
 41
-30.0
 62
     5
 63
     7
 74
     0
 91
        4
 64
     7
 65
   257
 75
     1
175
     1
 42
1.0
 92
        8
 66
     7
 43
1.0
 76
     1
 77
     6
 78
     2
 67
     7
 79
     5
170
     0
171
     0
290
     0
174
     0
 93
        1
 44
0.0
173
     0
291
     1
 45
0.0
1001
ACAD
1000
AcDbSavedByObjectVersion
1070
     0
1000
AcDbSavedByObjectVersion
1070
     0
1000
AcDbSavedByObjectVersion
1070
     0
1000
AcDbSavedByObjectVersion
1070
     0
  0
VISUALSTYLE
  5
7DF
102
{ACAD_REACTORS
330
7D3
102
}
330
7D3
100
AcDbVisualStyle
  2
Brighten
 70
    12
 71
     2
 72
     2
 73
     0
 90
        0
 40
-0.6
 41
-30.0
 62
     5
 63
     7
 74
     1
 91
        4
 64
     7
 65
   257
 75
     1
175
     1
 42
1.0
 92
        8
 66
     7
 43
1.0
 76
     1
 77
     6
 78
     2
 67
     7
 79
     5
170
     0
171
     0
290
     0
174
     0
 93
        1
 44
50.0
173
     0
291
     1
 45
0.0
1001
ACAD
1000
AcDbSavedByObjectVersion
1070
     0
1000
AcDbSavedByObjectVersion
1070
     0
1000
AcDbSavedByObjectVersion
1070
     0
1000
AcDbSavedByObjectVersion
1070
     0
  0
VISUALSTYLE
  5
7E3
102
{ACAD_REACTORS
330
7D3
102
}
330
7D3
100
AcDbVisualStyle
  2
ColorChange
 70
    16
 71
     2
 72
     2
 73
     3
 90
        0
 40
-0.6
 41
-30.0
 62
     5
 63
     8
 74
     1
 91
        4
 64
     7
 65
   257
 75
     1
175
     1
 42
1.0
 92
        8
 66
     8
 43
1.0
 76
     1
 77
     6
 78
     2
 67
     7
 79
     5
170
     0
171
     0
290
     0
174
     0
 93
        1
 44
0.0
173
     0
291
     1
 45
0.0
1001
ACAD
1000
AcDbSavedByObjectVersion
1070
     0
1000
AcDbSavedByObjectVersion
1070
     0
1000
AcDbSavedByObjectVersion
1070
     0
1000
AcDbSavedByObjectVersion
1070
     0
  0
VISUALSTYLE
  5
7DC
102
{ACAD_REACTORS
330
7D3
102
}
330
7D3
100
AcDbVisualStyle
  2
Conceptual
 70
     9
 71
     3
 72
     2
 73
     0
 90
        0
 40
-0.6
 41
-30.0
 62
     5
 63
     7
 74
     2
 91
        2
 64
     7
 65
   257
 75
     1
175
     1
 42
40.0
 92
        8
 66
     7
 43
1.0
 76
     1
 77
     6
 78
     2
 67
     7
 79
     3
170
     0
171
     0
290
     0
174
     0
 93
        1
 44
0.0
173
     0
291
     0
 45
0.0
1001
ACAD
1000
AcDbSavedByObjectVersion
1070
     0
1000
AcDbSavedByObjectVersion
1070
     0
1000
AcDbSavedByObjectVersion
1070
     0
1000
AcDbSavedByObjectVersion
1070
     0
  0
VISUALSTYLE
  5
7DE
102
{ACAD_REACTORS
330
7D3
102
}
330
7D3
100
AcDbVisualStyle
  2
Dim
 70
    11
 71
     2
 72
     2
 73
     0
 90
        0
 40
-0.6
 41
-30.0
 62
     5
 63
     7
 74
     1
 91
        4
 64
     7
 65
   257
 75
     1
175
     1
 42
1.0
 92
        8
 66
     7
 43
1.0
 76
     1
 77
     6
 78
     2
 67
     7
 79
     5
170
     0
171
     0
290
     0
174
     0
 93
        1
 44
-50.0
173
     0
291
     1
 45
0.0
1001
ACAD
1000
AcDbSavedByObjectVersion
1070
     0
1000
AcDbSavedByObjectVersion
1070
     0
1000
AcDbSavedByObjectVersion
1070
     0
1000
AcDbSavedByObjectVersion
1070
     0
  0
VISUALSTYLE
  5
7E2
102
{ACAD_REACTORS
330
7D3
102
}
330
7D3
100
AcDbVisualStyle
  2
Facepattern
 70
    15
 71
     2
 72
     2
 73
     0
 90
        0
 40
-0.6
 41
-30.0
 62
     5
 63
     7
 74
     1
 91
        4
 64
     7
 65
   257
 75
     1
175
     1
 42
1.0
 92
        8
 66
     7
 43
1.0
 76
     1
 77
     6
 78
     2
 67
     7
 79
     5
170
     0
171
     0
290
     0
174
     0
 93
        1
 44
0.0
173
     0
291
     1
 45
0.0
1001
ACAD
1000
AcDbSavedByObjectVersion
1070
     0
1000
AcDbSavedByObjectVersion
1070
     0
1000
AcDbSavedByObjectVersion
1070
     0
1000
AcDbSavedByObjectVersion
1070
     0
  0
VISUALSTYLE
  5
7D4
102
{ACAD_REACTORS
330
7D3
102
}
330
7D3
100
AcDbVisualStyle
  2
Flat
 70
     0
 71
     2
 72
     1
 73
     1
 90
        2
 40
-0.6
 41
30.0
 62
     5
 63
     7
 74
     0
 91
        4
 64
     7
 65
   257
 75
     1
175
     1
 42
1.0
 92
        8
 66
     7
 43
1.0
 76
     1
 77
     6
 78
     2
 67
     7
 79
     5
170
     0
171
     0
290
     0
174
     0
 93
       13
 44
0.0
173
     0
291
     1
 45
0.0
1001
ACAD
1000
AcDbSavedByObjectVersion
1070
     0
1000
AcDbSavedByObjectVersion
1070
     0
1000
AcDbSavedByObjectVersion
1070
     0
1000
AcDbSavedByObjectVersion
1070
     0
  0
VISUALSTYLE
  5
7D5
102
{ACAD_REACTORS
330
7D3
102
}
330
7D3
100
AcDbVisualStyle
  2
FlatWithEdges
 70
     1
 71
     2
 72
     1
 73
     1
 90
        2
 40
-0.6
 41
30.0
 62
     5
 63
     7
 74
     1
 91
        4
 64
     7
 65
   257
 75
     1
175
     1
 42
1.0
 92
        0
 66
   257
 43
1.0
 76
     1
 77
     6
 78
     2
 67
     7
 79
     5
170
     0
171
     0
290
     0
174
     0
 93
       13
 44
0.0
173
     0
291
     1
 45
0.0
1001
ACAD
1000
AcDbSavedByObjectVersion
1070
     0
1000
AcDbSavedByObjectVersion
1070
     0
1000
AcDbSavedByObjectVersion
1070
     0
1000
AcDbSavedByObjectVersion
1070
     0
  0
VISUALSTYLE
  5
7D6
102
{ACAD_REACTORS
330
7D3
102
}
330
7D3
100
AcDbVisualStyle
  2
Gouraud
 70
     2
 71
     2
 72
     2
 73
     1
 90
        2
 40
-0.6
 41
30.0
 62
     5
 63
     7
 74
     0
 91
        4
 64
     7
 65
   257
 75
     1
175
     1
 42
1.0
 92
        0
 66
     7
 43
1.0
 76
     1
 77
     6
 78
     2
 67
     7
 79
     5
170
     0
171
     0
290
     0
174
     0
 93
       13
 44
0.0
173
     0
291
     1
 45
0.0
1001
ACAD
1000
AcDbSavedByObjectVersion
1070
     0
1000
AcDbSavedByObjectVersion
1070
     0
1000
AcDbSavedByObjectVersion
1070
     0
1000
AcDbSavedByObjectVersion
1070
     0
  0
VISUALSTYLE
  5
7D7
102
{ACAD_REACTORS
330
7D3
102
}
330
7D3
100
AcDbVisualStyle
  2
GouraudWithEdges
 70
     3
 71
     2
 72
     2
 73
     1
 90
        2
 40
-0.6
 41
30.0
 62
     5
 63
     7
 74
     1
 91
        4
 64
     7
 65
   257
 75
     1
175
     1
 42
1.0
 92
        0
 66
   257
 43
1.0
 76
     1
 77
     6
 78
     2
 67
     7
 79
     5
170
     0
171
     0
290
     0
174
     0
 93
       13
 44
0.0
173
     0
291
     1
 45
0.0
1001
ACAD
1000
AcDbSavedByObjectVersion
1070
     0
1000
AcDbSavedByObjectVersion
1070
     0
1000
AcDbSavedByObjectVersion
1070
     0
1000
AcDbSavedByObjectVersion
1070
     0
  0
VISUALSTYLE
  5
7E1
102
{ACAD_REACTORS
330
7D3
102
}
330
7D3
100
AcDbVisualStyle
  2
Linepattern
 70
    14
 71
     2
 72
     2
 73
     0
 90
        0
 40
-0.6
 41
-30.0
 62
     5
 63
     7
 74
     1
 91
        4
 64
     7
 65
   257
 75
     7
175
     7
 42
1.0
 92
        8
 66
     7
 43
1.0
 76
     1
 77
     6
 78
     2
 67
     7
 79
     5
170
     0
171
     0
290
     0
174
     0
 93
        1
 44
0.0
173
     0
291
     1
 45
0.0
1001
ACAD
1000
AcDbSavedByObjectVersion
1070
     0
1000
AcDbSavedByObjectVersion
1070
     0
1000
AcDbSavedByObjectVersion
1070
     0
1000
AcDbSavedByObjectVersion
1070
     0
  0
VISUALSTYLE
  5
7DD
102
{ACAD_REACTORS
330
7D3
102
}
330
7D3
100
AcDbVisualStyle
  2
Realistic
 70
     8
 71
     2
 72
     2
 73
     0
 90
        0
 40
-0.6
 41
-30.0
 62
     5
 63
     7
 74
     1
 91
        0
 64
     7
 65
   257
 75
     1
175
     1
 42
1.0
 92
        8
 66
     8
 43
1.0
 76
     1
 77
     6
 78
     2
 67
     7
 79
     5
170
     0
171
     0
290
     0
174
     0
 93
       13
 44
0.0
173
     0
291
     0
 45
0.0
1001
ACAD
1000
AcDbSavedByObjectVersion
1070
     0
1000
AcDbSavedByObjectVersion
1070
     0
1000
AcDbSavedByObjectVersion
1070
     0
1000
AcDbSavedByObjectVersion
1070
     0
  0
VISUALSTYLE
  5
7E0
102
{ACAD_REACTORS
330
7D3
102
}
330
7D3
100
AcDbVisualStyle
  2
Thicken
 70
    13
 71
     2
 72
     2
 73
     0
 90
        0
 40
-0.6
 41
-30.0
 62
     5
 63
     7
 74
     1
 91
        4
 64
     7
 65
   257
 75
     1
175
     1
 42
1.0
 92
       12
 66
     7
 43
1.0
 76
     1
 77
     6
 78
     2
 67
     7
 79
     5
170
     0
171
     0
290
     0
174
     0
 93
        1
 44
0.0
173
     0
291
     1
 45
0.0
1001
ACAD
1000
AcDbSavedByObjectVersion
1070
     0
1000
AcDbSavedByObjectVersion
1070
     0
1000
AcDbSavedByObjectVersion
1070
     0
1000
AcDbSavedByObjectVersion
1070
     0
  0
DICTIONARYVAR
  5
927
102
{ACAD_REACTORS
330
923
102
}
330
923
100
DictionaryVariables
280
     0
  1
1:1
  0
DICTIONARYVAR
  5
925
102
{ACAD_REACTORS
330
923
102
}
330
923
100
DictionaryVariables
280
     0
  1
STANDARD
  0
DICTIONARYVAR
  5
924
102
{ACAD_REACTORS
330
923
102
}
330
923
100
DictionaryVariables
280
     0
  1
STANDARD
  0
DICTIONARYVAR
  5
92C
102
{ACAD_REACTORS
330
923
102
}
330
923
100
DictionaryVariables
280
     0
  1
2
  0
DICTIONARYVAR
  5
92B
102
{ACAD_REACTORS
330
923
102
}
330
923
100
DictionaryVariables
280
     0
  1
1
  0
DICTIONARYVAR
  5
92A
102
{ACAD_REACTORS
330
923
102
}
330
923
100
DictionaryVariables
280
     0
  1
0
  0
DICTIONARYVAR
  5
928
102
{ACAD_REACTORS
330
923
102
}
330
923
100
DictionaryVariables
280
     0
  1
2
  0
DICTIONARYVAR
  5
926
102
{ACAD_REACTORS
330
923
102
}
330
923
100
DictionaryVariables
280
     0
  1
1
  0
DICTIONARYVAR
  5
929
102
{ACAD_REACTORS
330
923
102
}
330
923
100
DictionaryVariables
280
     0
  1
127
  0
DICTIONARY
  5
AC5
330
7B3
100
AcDbDictionary
280
     1
281
     1
  3
ACAD_XREC_ROUNDTRIP
360
AC6
  0
DICTIONARY
  5
AC3
330
7B2
100
AcDbDictionary
280
     1
281
     1
  3
ACAD_XREC_ROUNDTRIP
360
AC4
  0
DICTIONARY
  5
7C4
330
7C3
100
AcDbDictionary
280
     1
281
     1
  3
ACAD_XREC_ROUNDTRIP
360
9A9
  3
BUMPTILE
360
7C6
  3
DIFFUSETILE
360
7C5
  3
OPACITYTILE
360
7C9
  3
REFLECTIONTILE
360
7C8
  3
REFRACTIONTILE
360
7CA
  3
SPECULARTILE
360
7C7
  0
DICTIONARY
  5
7BC
330
7BB
100
AcDbDictionary
280
     1
281
     1
  3
ACAD_XREC_ROUNDTRIP
360
9A8
  3
BUMPTILE
360
7BE
  3
DIFFUSETILE
360
7BD
  3
OPACITYTILE
360
7C1
  3
REFLECTIONTILE
360
7C0
  3
REFRACTIONTILE
360
7C2
  3
SPECULARTILE
360
7BF
  0
DICTIONARY
  5
7CC
330
7CB
100
AcDbDictionary
280
     1
281
     1
  3
ACAD_XREC_ROUNDTRIP
360
9AA
  3
BUMPTILE
360
7CE
  3
DIFFUSETILE
360
7CD
  3
OPACITYTILE
360
7D1
  3
REFLECTIONTILE
360
7D0
  3
REFRACTIONTILE
360
7D2
  3
SPECULARTILE
360
7CF
  0
DICTIONARY
  5
991
330
7B4
100
AcDbDictionary
280
     1
281
     1
  3
ACAD_ROUNDTRIP_2008_TABLESTYLE_CELLSTYLEMAP
360
AC0
  3
ACAD_XREC_ROUNDTRIP
360
AC7
  0
DICTIONARY
  5
993
330
7B5
100
AcDbDictionary
280
     1
281
     1
  3
ACAD_ROUNDTRIP_2008_TABLESTYLE_CELLSTYLEMAP
360
AC1
  3
ACAD_XREC_ROUNDTRIP
360
AC8
  0
XRECORD
  5
AC6
102
{ACAD_REACTORS
330
AC5
102
}
330
AC5
100
AcDbXrecord
280
     1
102
SHADEPLOT
 70
     0
102
SHADEPLOTRESLEVEL
 70
     2
102
SHADEPLOTCUSTOMDPI
 70
   300
  0
XRECORD
  5
AC4
102
{ACAD_REACTORS
330
AC3
102
}
330
AC3
100
AcDbXrecord
280
     1
102
SHADEPLOT
 70
     0
102
SHADEPLOTRESLEVEL
 70
     2
102
SHADEPLOTCUSTOMDPI
 70
   300
  0
XRECORD
  5
9A9
102
{ACAD_REACTORS
330
7C4
102
}
330
7C4
100
AcDbXrecord
280
     1
102
MATERIAL
148
0.0
149
0.0
149
0.0
 93
        0
 94
      127
282
     0
 72
     0
 77
     0
171
     0
175
     0
179
     0
273
     0
  0
XRECORD
  5
7C6
102
{ACAD_REACTORS
330
7C4
102
}
330
7C4
100
AcDbXrecord
280
     1
270
     1
271
     1
  0
XRECORD
  5
7C5
102
{ACAD_REACTORS
330
7C4
102
}
330
7C4
100
AcDbXrecord
280
     1
270
     1
271
     1
  0
XRECORD
  5
7C9
102
{ACAD_REACTORS
330
7C4
102
}
330
7C4
100
AcDbXrecord
280
     1
270
     1
271
     1
  0
XRECORD
  5
7C8
102
{ACAD_REACTORS
330
7C4
102
}
330
7C4
100
AcDbXrecord
280
     1
270
     1
271
     1
  0
XRECORD
  5
7CA
102
{ACAD_REACTORS
330
7C4
102
}
330
7C4
100
AcDbXrecord
280
     1
270
     1
271
     1
  0
XRECORD
  5
7C7
102
{ACAD_REACTORS
330
7C4
102
}
330
7C4
100
AcDbXrecord
280
     1
270
     1
271
     1
  0
XRECORD
  5
9A8
102
{ACAD_REACTORS
330
7BC
102
}
330
7BC
100
AcDbXrecord
280
     1
102
MATERIAL
148
0.0
149
0.0
149
0.0
 93
        0
 94
      127
282
     0
 72
     0
 77
     0
171
     0
175
     0
179
     0
273
     0
  0
XRECORD
  5
7BE
102
{ACAD_REACTORS
330
7BC
102
}
330
7BC
100
AcDbXrecord
280
     1
270
     1
271
     1
  0
XRECORD
  5
7BD
102
{ACAD_REACTORS
330
7BC
102
}
330
7BC
100
AcDbXrecord
280
     1
270
     1
271
     1
  0
XRECORD
  5
7C1
102
{ACAD_REACTORS
330
7BC
102
}
330
7BC
100
AcDbXrecord
280
     1
270
     1
271
     1
  0
XRECORD
  5
7C0
102
{ACAD_REACTORS
330
7BC
102
}
330
7BC
100
AcDbXrecord
280
     1
270
     1
271
     1
  0
XRECORD
  5
7C2
102
{ACAD_REACTORS
330
7BC
102
}
330
7BC
100
AcDbXrecord
280
     1
270
     1
271
     1
  0
XRECORD
  5
7BF
102
{ACAD_REACTORS
330
7BC
102
}
330
7BC
100
AcDbXrecord
280
     1
270
     1
271
     1
  0
XRECORD
  5
9AA
102
{ACAD_REACTORS
330
7CC
102
}
330
7CC
100
AcDbXrecord
280
     1
102
MATERIAL
148
0.0
149
0.0
149
0.0
 93
        0
 94
      127
282
     0
 72
     0
 77
     0
171
     0
175
     0
179
     0
273
     0
  0
XRECORD
  5
7CE
102
{ACAD_REACTORS
330
7CC
102
}
330
7CC
100
AcDbXrecord
280
     1
270
     1
271
     1
  0
XRECORD
  5
7CD
102
{ACAD_REACTORS
330
7CC
102
}
330
7CC
100
AcDbXrecord
280
     1
270
     1
271
     1
  0
XRECORD
  5
7D1
102
{ACAD_REACTORS
330
7CC
102
}
330
7CC
100
AcDbXrecord
280
     1
270
     1
271
     1
  0
XRECORD
  5
7D0
102
{ACAD_REACTORS
330
7CC
102
}
330
7CC
100
AcDbXrecord
280
     1
270
     1
271
     1
  0
XRECORD
  5
7D2
102
{ACAD_REACTORS
330
7CC
102
}
330
7CC
100
AcDbXrecord
280
     1
270
     1
271
     1
  0
XRECORD
  5
7CF
102
{ACAD_REACTORS
330
7CC
102
}
330
7CC
100
AcDbXrecord
280
     1
270
     1
271
     1
  0
CELLSTYLEMAP
  5
AC0
102
{ACAD_REACTORS
330
991
102
}
330
991
100
AcDbCellStyleMap
 90
        3
300
CELLSTYLE
  1
TABLEFORMAT_BEGIN
 90
        5
170
     1
 91
        0
 92
    32768
 62
   257
 93
        1
300
CONTENTFORMAT
  1
CONTENTFORMAT_BEGIN
 90
        0
 91
        0
 92
      512
 93
        0
300

 40
0.0
140
1.0
 94
        1
 62
     0
340
11
144
0.18
309
CONTENTFORMAT_END
171
     1
301
MARGIN
  1
CELLMARGIN_BEGIN
 40
0.06
 40
0.06
 40
0.06
 40
0.06
 40
0.18
 40
0.18
309
CELLMARGIN_END
 94
        6
 95
        1
302
GRIDFORMAT
  1
GRIDFORMAT_BEGIN
 90
        0
 91
        1
 62
     0
 92
       -2
340
0
 93
        0
 40
0.045
309
GRIDFORMAT_END
 95
        2
302
GRIDFORMAT
  1
GRIDFORMAT_BEGIN
 90
        0
 91
        1
 62
     0
 92
       -2
340
0
 93
        0
 40
0.045
309
GRIDFORMAT_END
 95
        4
302
GRIDFORMAT
  1
GRIDFORMAT_BEGIN
 90
        0
 91
        1
 62
     0
 92
       -2
340
0
 93
        0
 40
0.045
309
GRIDFORMAT_END
 95
        8
302
GRIDFORMAT
  1
GRIDFORMAT_BEGIN
 90
        0
 91
        1
 62
     0
 92
       -2
340
0
 93
        0
 40
0.045
309
GRIDFORMAT_END
 95
       16
302
GRIDFORMAT
  1
GRIDFORMAT_BEGIN
 90
        0
 91
        1
 62
     0
 92
       -2
340
0
 93
        0
 40
0.045
309
GRIDFORMAT_END
 95
       32
302
GRIDFORMAT
  1
GRIDFORMAT_BEGIN
 90
        0
 91
        1
 62
     0
 92
       -2
340
0
 93
        0
 40
0.045
309
GRIDFORMAT_END
309
TABLEFORMAT_END
  1
CELLSTYLE_BEGIN
 90
        1
 91
        1
300
_TITLE
309
CELLSTYLE_END
300
CELLSTYLE
  1
TABLEFORMAT_BEGIN
 90
        5
170
     1
 91
        0
 92
        0
 62
   257
 93
        1
300
CONTENTFORMAT
  1
CONTENTFORMAT_BEGIN
 90
        0
 91
        0
 92
      512
 93
        0
300

 40
0.0
140
1.0
 94
        1
 62
     0
340
11
144
0.18
309
CONTENTFORMAT_END
171
     1
301
MARGIN
  1
CELLMARGIN_BEGIN
 40
0.06
 40
0.06
 40
0.06
 40
0.06
 40
0.18
 40
0.18
309
CELLMARGIN_END
 94
        6
 95
        1
302
GRIDFORMAT
  1
GRIDFORMAT_BEGIN
 90
        0
 91
        1
 62
     0
 92
       -2
340
0
 93
        0
 40
0.045
309
GRIDFORMAT_END
 95
        2
302
GRIDFORMAT
  1
GRIDFORMAT_BEGIN
 90
        0
 91
        1
 62
     0
 92
       -2
340
0
 93
        0
 40
0.045
309
GRIDFORMAT_END
 95
        4
302
GRIDFORMAT
  1
GRIDFORMAT_BEGIN
 90
        0
 91
        1
 62
     0
 92
       -2
340
0
 93
        0
 40
0.045
309
GRIDFORMAT_END
 95
        8
302
GRIDFORMAT
  1
GRIDFORMAT_BEGIN
 90
        0
 91
        1
 62
     0
 92
       -2
340
0
 93
        0
 40
0.045
309
GRIDFORMAT_END
 95
       16
302
GRIDFORMAT
  1
GRIDFORMAT_BEGIN
 90
        0
 91
        1
 62
     0
 92
       -2
340
0
 93
        0
 40
0.045
309
GRIDFORMAT_END
 95
       32
302
GRIDFORMAT
  1
GRIDFORMAT_BEGIN
 90
        0
 91
        1
 62
     0
 92
       -2
340
0
 93
        0
 40
0.045
309
GRIDFORMAT_END
309
TABLEFORMAT_END
  1
CELLSTYLE_BEGIN
 90
        2
 91
        1
300
_HEADER
309
CELLSTYLE_END
300
CELLSTYLE
  1
TABLEFORMAT_BEGIN
 90
        5
170
     1
 91
        0
 92
        0
 62
   257
 93
        1
300
CONTENTFORMAT
  1
CONTENTFORMAT_BEGIN
 90
        0
 91
        0
 92
      512
 93
        0
300

 40
0.0
140
1.0
 94
        1
 62
     0
340
11
144
0.18
309
CONTENTFORMAT_END
171
     1
301
MARGIN
  1
CELLMARGIN_BEGIN
 40
0.06
 40
0.06
 40
0.06
 40
0.06
 40
0.18
 40
0.18
309
CELLMARGIN_END
 94
        6
 95
        1
302
GRIDFORMAT
  1
GRIDFORMAT_BEGIN
 90
        0
 91
        1
 62
     0
 92
       -2
340
0
 93
        0
 40
0.045
309
GRIDFORMAT_END
 95
        2
302
GRIDFORMAT
  1
GRIDFORMAT_BEGIN
 90
        0
 91
        1
 62
     0
 92
       -2
340
0
 93
        0
 40
0.045
309
GRIDFORMAT_END
 95
        4
302
GRIDFORMAT
  1
GRIDFORMAT_BEGIN
 90
        0
 91
        1
 62
     0
 92
       -2
340
0
 93
        0
 40
0.045
309
GRIDFORMAT_END
 95
        8
302
GRIDFORMAT
  1
GRIDFORMAT_BEGIN
 90
        0
 91
        1
 62
     0
 92
       -2
340
0
 93
        0
 40
0.045
309
GRIDFORMAT_END
 95
       16
302
GRIDFORMAT
  1
GRIDFORMAT_BEGIN
 90
        0
 91
        1
 62
     0
 92
       -2
340
0
 93
        0
 40
0.045
309
GRIDFORMAT_END
 95
       32
302
GRIDFORMAT
  1
GRIDFORMAT_BEGIN
 90
        0
 91
        1
 62
     0
 92
       -2
340
0
 93
        0
 40
0.045
309
GRIDFORMAT_END
309
TABLEFORMAT_END
  1
CELLSTYLE_BEGIN
 90
        3
 91
        2
300
_DATA
309
CELLSTYLE_END
  0
XRECORD
  5
AC7
102
{ACAD_REACTORS
330
991
102
}
330
991
100
AcDbXrecord
280
     1
102
ACAD_ROUNDTRIP_PRE2007_TABLESTYLE
 90
      512
 91
        0
  1

 92
      512
 93
        0
  2

 94
      512
 95
        0
  3

  0
CELLSTYLEMAP
  5
AC1
102
{ACAD_REACTORS
330
993
102
}
330
993
100
AcDbCellStyleMap
 90
        3
300
CELLSTYLE
  1
TABLEFORMAT_BEGIN
 90
        5
170
     1
 91
        0
 92
    32768
 62
   257
 93
        1
300
CONTENTFORMAT
  1
CONTENTFORMAT_BEGIN
 90
        0
 91
        0
 92
      512
 93
        0
300

 40
0.0
140
1.0
 94
        1
 62
     0
340
11
144
0.18
309
CONTENTFORMAT_END
171
     1
301
MARGIN
  1
CELLMARGIN_BEGIN
 40
0.06
 40
0.06
 40
0.06
 40
0.06
 40
0.18
 40
0.18
309
CELLMARGIN_END
 94
        6
 95
        1
302
GRIDFORMAT
  1
GRIDFORMAT_BEGIN
 90
        0
 91
        1
 62
     0
 92
       -2
340
0
 93
        0
 40
0.045
309
GRIDFORMAT_END
 95
        2
302
GRIDFORMAT
  1
GRIDFORMAT_BEGIN
 90
        0
 91
        1
 62
     0
 92
       -2
340
0
 93
        0
 40
0.045
309
GRIDFORMAT_END
 95
        4
302
GRIDFORMAT
  1
GRIDFORMAT_BEGIN
 90
        0
 91
        1
 62
     0
 92
       -2
340
0
 93
        0
 40
0.045
309
GRIDFORMAT_END
 95
        8
302
GRIDFORMAT
  1
GRIDFORMAT_BEGIN
 90
        0
 91
        1
 62
     0
 92
       -2
340
0
 93
        0
 40
0.045
309
GRIDFORMAT_END
 95
       16
302
GRIDFORMAT
  1
GRIDFORMAT_BEGIN
 90
        0
 91
        1
 62
     0
 92
       -2
340
0
 93
        0
 40
0.045
309
GRIDFORMAT_END
 95
       32
302
GRIDFORMAT
  1
GRIDFORMAT_BEGIN
 90
        0
 91
        1
 62
     0
 92
       -2
340
0
 93
        0
 40
0.045
309
GRIDFORMAT_END
309
TABLEFORMAT_END
  1
CELLSTYLE_BEGIN
 90
        1
 91
        1
300
_TITLE
309
CELLSTYLE_END
300
CELLSTYLE
  1
TABLEFORMAT_BEGIN
 90
        5
170
     1
 91
        0
 92
        0
 62
   257
 93
        1
300
CONTENTFORMAT
  1
CONTENTFORMAT_BEGIN
 90
        0
 91
        0
 92
      512
 93
        0
300

 40
0.0
140
1.0
 94
        1
 62
     0
340
11
144
0.18
309
CONTENTFORMAT_END
171
     1
301
MARGIN
  1
CELLMARGIN_BEGIN
 40
0.06
 40
0.06
 40
0.06
 40
0.06
 40
0.18
 40
0.18
309
CELLMARGIN_END
 94
        6
 95
        1
302
GRIDFORMAT
  1
GRIDFORMAT_BEGIN
 90
        0
 91
        1
 62
     0
 92
       -2
340
0
 93
        0
 40
0.045
309
GRIDFORMAT_END
 95
        2
302
GRIDFORMAT
  1
GRIDFORMAT_BEGIN
 90
        0
 91
        1
 62
     0
 92
       -2
340
0
 93
        0
 40
0.045
309
GRIDFORMAT_END
 95
        4
302
GRIDFORMAT
  1
GRIDFORMAT_BEGIN
 90
        0
 91
        1
 62
     0
 92
       -2
340
0
 93
        0
 40
0.045
309
GRIDFORMAT_END
 95
        8
302
GRIDFORMAT
  1
GRIDFORMAT_BEGIN
 90
        0
 91
        1
 62
     0
 92
       -2
340
0
 93
        0
 40
0.045
309
GRIDFORMAT_END
 95
       16
302
GRIDFORMAT
  1
GRIDFORMAT_BEGIN
 90
        0
 91
        1
 62
     0
 92
       -2
340
0
 93
        0
 40
0.045
309
GRIDFORMAT_END
 95
       32
302
GRIDFORMAT
  1
GRIDFORMAT_BEGIN
 90
        0
 91
        1
 62
     0
 92
       -2
340
0
 93
        0
 40
0.045
309
GRIDFORMAT_END
309
TABLEFORMAT_END
  1
CELLSTYLE_BEGIN
 90
        2
 91
        1
300
_HEADER
309
CELLSTYLE_END
300
CELLSTYLE
  1
TABLEFORMAT_BEGIN
 90
        5
170
     1
 91
        0
 92
        0
 62
   257
 93
        1
300
CONTENTFORMAT
  1
CONTENTFORMAT_BEGIN
 90
        0
 91
        0
 92
      512
 93
        0
300

 40
0.0
140
1.0
 94
        1
 62
     0
340
11
144
0.18
309
CONTENTFORMAT_END
171
     1
301
MARGIN
  1
CELLMARGIN_BEGIN
 40
0.06
 40
0.06
 40
0.06
 40
0.06
 40
0.18
 40
0.18
309
CELLMARGIN_END
 94
        6
 95
        1
302
GRIDFORMAT
  1
GRIDFORMAT_BEGIN
 90
        0
 91
        1
 62
     0
 92
       -2
340
0
 93
        0
 40
0.045
309
GRIDFORMAT_END
 95
        2
302
GRIDFORMAT
  1
GRIDFORMAT_BEGIN
 90
        0
 91
        1
 62
     0
 92
       -2
340
0
 93
        0
 40
0.045
309
GRIDFORMAT_END
 95
        4
302
GRIDFORMAT
  1
GRIDFORMAT_BEGIN
 90
        0
 91
        1
 62
     0
 92
       -2
340
0
 93
        0
 40
0.045
309
GRIDFORMAT_END
 95
        8
302
GRIDFORMAT
  1
GRIDFORMAT_BEGIN
 90
        0
 91
        1
 62
     0
 92
       -2
340
0
 93
        0
 40
0.045
309
GRIDFORMAT_END
 95
       16
302
GRIDFORMAT
  1
GRIDFORMAT_BEGIN
 90
        0
 91
        1
 62
     0
 92
       -2
340
0
 93
        0
 40
0.045
309
GRIDFORMAT_END
 95
       32
302
GRIDFORMAT
  1
GRIDFORMAT_BEGIN
 90
        0
 91
        1
 62
     0
 92
       -2
340
0
 93
        0
 40
0.045
309
GRIDFORMAT_END
309
TABLEFORMAT_END
  1
CELLSTYLE_BEGIN
 90
        3
 91
        2
300
_DATA
309
CELLSTYLE_END
  0
XRECORD
  5
AC8
102
{ACAD_REACTORS
330
993
102
}
330
993
100
AcDbXrecord
280
     1
102
ACAD_ROUNDTRIP_PRE2007_TABLESTYLE
 90
      512
 91
        0
  1

 92
      512
 93
        0
  2

 94
      512
 95
        0
  3

  0
ENDSEC
  0
EOF
